<?xml version="1.0" standalone="no"?>
<!DOCTYPE svg PUBLIC "-//W3C//DTD SVG 1.1//EN" "http://www.w3.org/Graphics/SVG/1.1/DTD/svg11.dtd" >
<svg xmlns="http://www.w3.org/2000/svg" xmlns:xlink="http://www.w3.org/1999/xlink" version="1.1">
<metadata>
Created by FontForge 20190801 at Sat Sep 13 10:21:07 2014
 By Unknown
Typeface (c) The scict.ir Corporation plc. Data (c) The scict.ir Corporation plc/Type Solutions Inc. 2012-2013. All Rights Reserved.Modify  by Hossein Zahedi.
</metadata>
<defs>
<font id="IRYekan" horiz-adv-x="0" >
  <font-face 
    font-family="IRYekan"
    font-weight="400"
    font-stretch="normal"
    units-per-em="2048"
    panose-1="2 0 5 6 0 0 0 2 0 2"
    ascent="1638"
    descent="-410"
    x-height="850"
    cap-height="1173"
    bbox="-431 -1134 2959 2678.55"
    underline-thickness="60"
    underline-position="-100"
    unicode-range="U+0020-FFFC"
  />
<missing-glyph horiz-adv-x="2048" 
 />
    <glyph glyph-name="afii64184" unicode="&#xfedf;&#xfee0;&#x651;&#x670;&#xfeea;" horiz-adv-x="2859" arabic-form="isolated" 
d="M2697 352q0 -133 -67 -221q-103 -131 -301 -131h-218q-131 0 -194 14q-62 17 -135 78q-82 -67 -154 -82q-59 -10 -301 -10q-137 4 -188 41q-27 12 -240 205q-129 -273 -420 -273q-178 0 -307 127t-129 312q0 125 88 254q47 73 180 202l-67 78l157 156l684 -727
q84 -90 127 -125q45 -23 146 -23v-2l61 -2h78q88 0 125 43q14 15 27 56q14 40 14 127v777h225v-820q0 -121 76 -160q74 -19 215 -19h139q90 0 131 58q25 49 25 164v1017h223v-1114zM700 395q0 58 -41 125l-182 182q-129 -118 -166 -180q-37 -59 -37 -127q0 -57 52 -131
q53 -71 157 -71q101 0 166 77q51 58 51 125zM1522 1585h106v-129q0 -31 44 -34t44 34v129h103v-129q0 -21 15 -30t44 -8t29 32v135h110v-131q0 -66 -32 -99q-35 -51 -101 -51q-65 0 -112 51q-31 -51 -123 -51q-60 0 -93.5 42t-33.5 108v131zM1811 1692h-104v352h104v-352z
" />
    <glyph glyph-name="afii62834" unicode="&#xfedf;&#xfe82;" horiz-adv-x="1328" arabic-form="isolated" 
d="M1235 352q0 -133 -60 -221q-98 -131 -297 -131h-217q-446 0 -446 352v1114h229v-1017q0 -164 41 -195q27 -27 176 -27h203q88 0 131 58q21 49 21 164v1017h219v-1114zM699 1618h-472q-93 3 -136.5 -40.5t-86.5 -125.5l-177 66q76 184 133 227q48 41 101 59t140 20h498
v-206z" />
    <glyph glyph-name="afii62835" unicode="&#xfee0;&#xfe82;" horiz-adv-x="1423" arabic-form="final" 
d="M1462 0q-200 0 -311 152q-115 -152 -307 -152h-483q-179 0 -160 227h624q97 0 133 58q23 49 23 164v1017h229v-1040q0 -123 68 -162q51 -37 184 -37v-227zM432 347h-226v1119h226v-1088v-31zM713 1627h-472q-93 3 -136.5 -40.5t-86.5 -125.5l-177 66q76 184 133 227
q48 41 101 59t140 20h498v-206z" />
    <glyph glyph-name="afii62836" unicode="&#xfedf;&#xfe84;" horiz-adv-x="1270" arabic-form="isolated" 
d="M1197 352q0 -133 -60 -221q-98 -131 -297 -131h-217q-446 0 -446 352v1114h229v-1017q0 -164 41 -195q27 -27 176 -27h203q88 0 131 58q21 49 21 164v1017h219v-1114zM564 1743l-458 -166l-31 101l104 39q-38 33 -50.5 74t-5.5 81.5t31 78t59 64t79 38.5t91 2
q28 -5 51.5 -19.5t49.5 -37.5l-66 -96q-25 25 -43.5 30t-34.5 7q-14 1 -30.5 -2t-30.5 -11.5t-24.5 -21.5t-12.5 -31q-2 -16 3 -29t14.5 -22.5t23 -15.5t28.5 -7q64 -7 208 50z" />
    <glyph glyph-name="afii62837" unicode="&#xfee0;&#xfe84;" horiz-adv-x="1412" arabic-form="final" 
d="M1451 0q-200 0 -311 152q-115 -152 -307 -152h-483q-179 0 -160 227h624q97 0 133 58q23 49 23 164v1017h229v-1040q0 -123 68 -162q51 -37 184 -37v-227zM421 347h-226v1119h226v-1088v-31zM546 1757l-458 -166l-31 101l104 39q-38 33 -50.5 74t-5.5 81.5t31 78t59 64
t79 38.5t91 2q28 -5 51.5 -19.5t49.5 -37.5l-66 -96q-25 25 -43.5 30t-34.5 7q-14 1 -30.5 -2t-30.5 -11.5t-24.5 -21.5t-12.5 -31q-2 -16 3 -29t14.5 -22.5t23 -15.5t28.5 -7q64 -7 208 50z" />
    <glyph glyph-name="afii62838" unicode="&#xfedf;&#xfe88;" horiz-adv-x="1269" arabic-form="isolated" 
d="M603 -484l-458 -166l-31 101l104 39q-38 33 -50.5 74t-5.5 81.5t31 78t59 64t79 38.5t91 2q28 -5 51.5 -19.5t49.5 -37.5l-66 -96q-25 25 -43.5 30t-34.5 7q-14 1 -30.5 -2t-30.5 -11.5t-24.5 -21.5t-12.5 -31q-2 -16 3 -29t14.5 -22.5t23 -15.5t28.5 -7q64 -7 208 50z
M1182 352q0 -133 -60 -221q-98 -131 -297 -131h-217q-446 0 -446 352v1114h229v-1017q0 -164 41 -195q27 -27 176 -27h203q88 0 131 58q21 49 21 164v1017h219v-1114z" />
    <glyph glyph-name="afii62839" unicode="&#xfee0;&#xfe88;" horiz-adv-x="1391" arabic-form="final" 
d="M1430 0q-200 0 -311 152q-115 -152 -307 -152h-483q-179 0 -160 227h624q97 0 133 58q23 49 23 164v1017h229v-1040q0 -123 68 -162q51 -37 184 -37v-227zM400 347h-226v1119h226v-1088v-31zM607 -512l-458 -166l-31 101l104 39q-38 33 -50.5 74t-5.5 81.5t31 78t59 64
t79 38.5t91 2q28 -5 51.5 -19.5t49.5 -37.5l-66 -96q-25 25 -43.5 30t-34.5 7q-14 1 -30.5 -2t-30.5 -11.5t-24.5 -21.5t-12.5 -31q-2 -16 3 -29t14.5 -22.5t23 -15.5t28.5 -7q64 -7 208 50z" />
    <glyph glyph-name="afii62840" unicode="&#xfedf;&#xfe8e;" horiz-adv-x="1275" arabic-form="isolated" 
d="M1182 352q0 -133 -60 -221q-98 -131 -297 -131h-217q-446 0 -446 352v1114h229v-1017q0 -164 41 -195q27 -27 176 -27h203q88 0 131 58q21 49 21 164v1017h219v-1114z" />
    <glyph glyph-name="afii62841" unicode="&#xfee0;&#xfe8e;" horiz-adv-x="1337" arabic-form="final" 
d="M1376 0q-200 0 -311 152q-115 -152 -307 -152h-483q-179 0 -160 227h624q97 0 133 58q23 49 23 164v1017h229v-1040q0 -123 68 -162q51 -37 184 -37v-227zM346 347h-226v1119h226v-1088v-31z" />
    <glyph glyph-name="afii57369" unicode="&#x6a4;" horiz-adv-x="849" arabic-form="medial" 
 />
    <glyph glyph-name="afii57371" unicode="&#x6a4;" horiz-adv-x="1691" arabic-form="final" 
 />
    <glyph glyph-name="afii57372" unicode="&#x6a4;" horiz-adv-x="714" arabic-form="initial" 
 />
    <glyph glyph-name="afii62958" unicode="&#x67e;" horiz-adv-x="2173" arabic-form="final" 
d="M2214 0l-143 6l-97 14q-78 23 -123 72q-114 -92 -219 -92h-1202q-135 0 -231.5 116.5t-96.5 256.5v346h230v-313q0 -93 22 -121q37 -58 146 -58h1061q96 0 125 23q47 41 47 156v313h231v-313q0 -84 37 -121q57 -58 213 -58v-227zM1193 -716q0 -32 -12.5 -60t-33.5 -49
t-49 -33t-59 -12q-32 0 -59.5 12t-48.5 33t-33 49t-12 60q0 31 12 59t33 49t48.5 33.5t59.5 12.5q31 0 59 -12.5t49 -33.5t33.5 -49t12.5 -59zM1017 -368q0 -32 -12.5 -60t-33.5 -49t-49 -33t-59 -12q-32 0 -59.5 12t-48.5 33t-33 49t-12 60q0 31 12 59t33 49t48.5 33.5
t59.5 12.5q31 0 59 -12.5t49 -33.5t33.5 -49t12.5 -59zM1387 -368q0 -32 -12.5 -60t-33.5 -49t-49 -33t-59 -12q-32 0 -60 12t-49 33t-33 49t-12 60q0 31 12 59t33 49t49 33.5t60 12.5q31 0 59 -12.5t49 -33.5t33.5 -49t12.5 -59z" />
    <glyph glyph-name="afii62956" unicode="&#x67e;" horiz-adv-x="743" arabic-form="initial" 
d="M662 373q0 -150 -99.5 -261.5t-234.5 -111.5h-371v227h299q113 0 154 58q16 28 16 121v313h236v-346zM533 -718q0 -32 -12.5 -60t-33.5 -49t-49 -33t-59 -12q-32 0 -59.5 12t-48.5 33t-33 49t-12 60q0 31 12 59t33 49t48.5 33.5t59.5 12.5q31 0 59 -12.5t49 -33.5
t33.5 -49t12.5 -59zM357 -370q0 -32 -12.5 -60t-33.5 -49t-49 -33t-59 -12q-32 0 -59.5 12t-48.5 33t-33 49t-12 60q0 31 12 59t33 49t48.5 33.5t59.5 12.5q31 0 59 -12.5t49 -33.5t33.5 -49t12.5 -59zM727 -370q0 -32 -12.5 -60t-33.5 -49t-49 -33t-59 -12q-32 0 -60 12
t-49 33t-33 49t-12 60q0 31 12 59t33 49t49 33.5t60 12.5q31 0 59 -12.5t49 -33.5t33.5 -49t12.5 -59z" />
    <glyph glyph-name="afii52957" unicode="&#x67e;" horiz-adv-x="936" arabic-form="medial" 
d="M983 0l-135 4l-68 10l-53 27l-65 51q-111 -92 -220 -92h-489v227h422q112 0 149 58q17 28 17 121v313h233v-313q0 -109 37 -142q47 -37 172 -37v-227zM652 -708q0 -32 -12.5 -60t-33.5 -49t-49 -33t-59 -12q-32 0 -59.5 12t-48.5 33t-33 49t-12 60q0 31 12 59t33 49
t48.5 33.5t59.5 12.5q31 0 59 -12.5t49 -33.5t33.5 -49t12.5 -59zM476 -360q0 -32 -12.5 -60t-33.5 -49t-49 -33t-59 -12q-32 0 -59.5 12t-48.5 33t-33 49t-12 60q0 31 12 59t33 49t48.5 33.5t59.5 12.5q31 0 59 -12.5t49 -33.5t33.5 -49t12.5 -59zM846 -360
q0 -32 -12.5 -60t-33.5 -49t-49 -33t-59 -12q-32 0 -60 12t-49 33t-33 49t-12 60q0 31 12 59t33 49t49 33.5t60 12.5q31 0 59 -12.5t49 -33.5t33.5 -49t12.5 -59z" />
    <glyph glyph-name="afii57459" unicode="&#x6a1;" horiz-adv-x="1066" 
d="M1001 381q0 -199 -133 -297q-110 -84 -223 -84h-686v227h690q129 0 129 172q-321 0 -405 21q-191 78 -191 313q0 172 117 270.5t266 98.5q168 0 289 -113q72 -63 108.5 -147t36.5 -197zM760 612q0 121 -74 199q-57 53 -141 53q-66 0 -108 -33.5t-42 -82.5q0 -107 62 -123
q20 -13 151 -13h152z" />
    <glyph glyph-name="afii57374" unicode="&#x6a1;" horiz-adv-x="1087" 
d="M1149 0l-74 6h-61l-162 4q-94 0 -182 15l-103 36q-98 -61 -649 -61v227h338q-125 146 -125 310q0 159 110.5 267.5t299.5 108.5q176 0 284 -127q97 -120 97 -288q0 -150 -80 -271h307v-227zM717 489q0 78 -62.5 140.5t-128.5 62.5q-59 0 -118.5 -54t-59.5 -122
q0 -137 230 -240q139 105 139 213z" />
    <glyph glyph-name="afii52258" unicode="&#x6a1;" horiz-adv-x="2054" 
d="M2085 0q-399 0 -494 51q-32 -47 -432 -47l-760 -4q-129 0 -227 129q-74 111 -74 244v346h226v-313q0 -179 170 -179h790q-125 146 -125 310q0 145 109.5 260.5t296.5 115.5q166 0 280 -127q101 -120 101 -286q0 -148 -80 -273h219v-227zM1741 489q0 78 -59.5 140.5
t-127.5 62.5q-57 0 -121.5 -50t-64.5 -122q0 -131 234 -244q139 86 139 213z" />
    <glyph glyph-name="afii62961" unicode="&#x686;" horiz-adv-x="1513" arabic-form="final" 
d="M1572 0q-192 0 -293 51q-71 37 -102 109l-29 110l-450 -250q-303 -172 -303 -426q0 -182 151.5 -325t321.5 -143h667l19 -232h-627q-358 0 -584 260q-165 203 -165 447v47l4 51q32 317 329 473l705 385q-55 98 -153.5 115.5t-608.5 17.5l-33 223h551q230 0 354.5 -120.5
t124.5 -350.5l-208 -118q10 -60 91 -78.5t238 -18.5v-227zM1142 -632q0 -32 -12.5 -60t-33.5 -49t-49 -33t-59 -12q-32 0 -59.5 12t-48.5 33t-33 49t-12 60q0 31 12 59t33 49t48.5 33.5t59.5 12.5q31 0 59 -12.5t49 -33.5t33.5 -49t12.5 -59zM966 -284q0 -32 -12.5 -60
t-33.5 -49t-49 -33t-59 -12q-32 0 -59.5 12t-48.5 33t-33 49t-12 60q0 31 12 59t33 49t48.5 33.5t59.5 12.5q31 0 59 -12.5t49 -33.5t33.5 -49t12.5 -59zM1336 -284q0 -32 -12.5 -60t-33.5 -49t-49 -33t-59 -12q-32 0 -60 12t-49 33t-33 49t-12 60q0 31 12 59t33 49t49 33.5
t60 12.5q31 0 59 -12.5t49 -33.5t33.5 -49t12.5 -59z" />
    <glyph glyph-name="afii62959" unicode="&#x686;" horiz-adv-x="1309" arabic-form="initial" 
d="M1264 442l-525 -297q-172 -98 -320.5 -121.5t-471.5 -23.5v227h182q131 0 174 13q143 16 268 73q84 35 226 123l217 119q-33 86 -156 117q-110 18 -592 18l-33 223h564q467 0 467 -471zM856 -692q0 -32 -12.5 -60t-33.5 -49t-49 -33t-59 -12q-32 0 -59.5 12t-48.5 33
t-33 49t-12 60q0 31 12 59t33 49t48.5 33.5t59.5 12.5q31 0 59 -12.5t49 -33.5t33.5 -49t12.5 -59zM680 -344q0 -32 -12.5 -60t-33.5 -49t-49 -33t-59 -12q-32 0 -59.5 12t-48.5 33t-33 49t-12 60q0 31 12 59t33 49t48.5 33.5t59.5 12.5q31 0 59 -12.5t49 -33.5t33.5 -49
t12.5 -59zM1050 -344q0 -32 -12.5 -60t-33.5 -49t-49 -33t-59 -12q-32 0 -60 12t-49 33t-33 49t-12 60q0 31 12 59t33 49t49 33.5t60 12.5q31 0 59 -12.5t49 -33.5t33.5 -49t12.5 -59z" />
    <glyph glyph-name="afii62960" unicode="&#x686;" horiz-adv-x="1309" arabic-form="medial" 
d="M1346 0q-183 0 -269 43q-57 29 -94 109l-27 118q-139 -88 -270 -151q-115 -51 -188 -78q-156 -41 -551 -41v227h182q131 0 174 13q143 16 268 73q84 35 226 123l217 119q-33 86 -156 117q-110 18 -592 18l-33 223h564q223 0 345 -120.5t122 -352.5l-213 -116
q0 -97 295 -97v-227zM830 -692q0 -32 -12.5 -60t-33.5 -49t-49 -33t-59 -12q-32 0 -59.5 12t-48.5 33t-33 49t-12 60q0 31 12 59t33 49t48.5 33.5t59.5 12.5q31 0 59 -12.5t49 -33.5t33.5 -49t12.5 -59zM654 -344q0 -32 -12.5 -60t-33.5 -49t-49 -33t-59 -12q-32 0 -59.5 12
t-48.5 33t-33 49t-12 60q0 31 12 59t33 49t48.5 33.5t59.5 12.5q31 0 59 -12.5t49 -33.5t33.5 -49t12.5 -59zM1024 -344q0 -32 -12.5 -60t-33.5 -49t-49 -33t-59 -12q-32 0 -60 12t-49 33t-33 49t-12 60q0 31 12 59t33 49t49 33.5t60 12.5q31 0 59 -12.5t49 -33.5t33.5 -49
t12.5 -59z" />
    <glyph glyph-name="afii62962" unicode="&#x698;" horiz-adv-x="1163" arabic-form="final" 
d="M1200 0q-170 0 -244 109q0 -316 -178 -521q-166 -166 -399 -166h-295l-41 226h315q142 0 255.5 96t113.5 240v735h225v-330q0 -162 248 -162v-227zM861 1440q0 -32 -12.5 -60t-33.5 -49t-49 -33t-59 -12q-32 0 -59.5 12t-48.5 33t-33 49t-12 60q0 31 12 59t33 49
t48.5 33.5t59.5 12.5q31 0 59 -12.5t49 -33.5t33.5 -49t12.5 -59zM685 1092q0 -32 -12.5 -60t-33.5 -49t-49 -33t-59 -12q-32 0 -59.5 12t-48.5 33t-33 49t-12 60q0 31 12 59t33 49t48.5 33.5t59.5 12.5q31 0 59 -12.5t49 -33.5t33.5 -49t12.5 -59zM1055 1092
q0 -32 -12.5 -60t-33.5 -49t-49 -33t-59 -12q-32 0 -60 12t-49 33t-33 49t-12 60q0 31 12 59t33 49t49 33.5t60 12.5q31 0 59 -12.5t49 -33.5t33.5 -49t12.5 -59z" />
    <glyph glyph-name="afii62964" unicode="&#x6a9;" horiz-adv-x="2234" arabic-form="final" 
d="M2294 0q-256 0 -377 162q-62 -162 -295 -162h-1200q-137 0 -230.5 109.5t-93.5 263.5v346h230v-313q0 -95 20 -121q37 -58 150 -58h1112q114 0 114 84q0 43 -53 105l-559 624l-40 224l880 340l35 -208l-664 -247l623 -707l165 -166q72 -49 183 -49v-227z" />
    <glyph glyph-name="afii52305" unicode="&#x6a9;" horiz-adv-x="1071" arabic-form="initial" 
d="M977 311q0 -112 -88 -213q-98 -98 -277 -98h-665v227h665q131 0 131 86q0 39 -43 97l-602 630l-46 241l918 330l28 -221l-670 -247l585 -649q64 -78 64 -183z" />
    <glyph glyph-name="afii52306" unicode="&#x6a9;" horiz-adv-x="1314" arabic-form="medial" 
d="M1337 0q-127 0 -232.5 44t-168.5 138q-33 -84 -88 -135q-62 -47 -199 -47h-684v227h659q119 0 119 86q0 41 -53 103l-571 624l-37 258l904 321l36 -229l-674 -247l635 -701q139 -155 199 -192l59 -17l96 -6v-227z" />
    <glyph glyph-name="afii62967" unicode="&#x6af;" horiz-adv-x="2234" arabic-form="final" 
d="M1937 1723l-884 -339l-22 88l900 335zM2294 0q-256 0 -377 162q-62 -162 -295 -162h-1200q-137 0 -230.5 109.5t-93.5 263.5v346h230v-313q0 -95 20 -121q37 -58 150 -58h1112q114 0 114 84q0 43 -53 105l-559 624l-39 234l879 330l35 -208l-664 -247l623 -707l165 -166
q72 -49 183 -49v-227z" />
    <glyph glyph-name="afii62965" unicode="&#x6af;" horiz-adv-x="1041" arabic-form="initial" 
d="M977 311q0 -112 -88 -213q-98 -98 -277 -98h-665v227h665q131 0 131 86q0 39 -43 97l-602 630l-47 258l916 321l31 -229l-670 -247l585 -649q64 -78 64 -183zM931 1721l-869 -313l-10 88l877 309z" />
    <glyph glyph-name="afii62966" unicode="&#x6af;" horiz-adv-x="1309" arabic-form="medial" 
d="M1337 0q-127 0 -232.5 44t-168.5 138q-33 -84 -88 -135q-62 -47 -199 -47h-684v227h659q119 0 119 86q0 41 -53 103l-571 624l-37 258l904 321l36 -229l-674 -247l635 -701q139 -155 199 -192l59 -17l96 -6v-227zM952 1712l-860 -313l-15 88l867 309z" />
    <glyph glyph-name="afii52364" unicode="&#x6cc;" horiz-adv-x="1636" arabic-form="final" 
d="M1673 0h-211l11 -111q0 -194 -155 -330.5t-345 -136.5h-355q-260 0 -425 199q-140 186 -140 461v407h232v-499q0 -119 84 -223q108 -119 301 -119h293q114 0 192 61q88 68 88 193q0 63 -107.5 80.5t-361.5 17.5l-20 227h919v-227z" />
    <glyph glyph-name="afii62882" unicode="&#xfc5e;" arabic-form="isolated" 
d="M-252 278h96v-136q3 -31 53.5 -34t50.5 34v136h96v-136q0 -21 16 -31t51 -8t35 32v143h100v-131q-4 -66 -26 -89q-42 -48 -107 -46q-66 0 -113 46q-31 -51 -123 -51q-61 0 -95 37t-34 103v131zM264 814q1 -132 -98 -198l-408 -231l-60 102q93 51 103 71q17 57 -36 62
q-37 0 -123 -17l-15 106q262 49 274 -112l91 55q-92 48 -94 146q-2 70 41 126t121 71q81 8 143 -45t61 -136zM8 806q0 -31 21 -52t52 -21q30 0 51.5 21t21.5 52q0 30 -21.5 51.5t-51.5 21.5q-31 0 -52 -21.5t-21 -51.5z" />
    <glyph glyph-name="afii62883" unicode="&#xfc5f;" arabic-form="isolated" 
d="M-249 703h96v-136q3 -31 53.5 -34t50.5 34v136h96v-136q0 -21 16 -31t51 -8t35 32v143h100v-131q-4 -66 -26 -89q-42 -48 -107 -46q-66 0 -113 46q-31 -51 -123 -51q-61 0 -95 37t-34 103v131zM-292 263l545 141v-98l-545 -139v96zM-292 83l545 141v-98l-545 -139v96z
" />
    <glyph glyph-name="afii62884" unicode="&#xfc60;" arabic-form="isolated" 
d="M-252 278h96v-136q3 -31 53.5 -34t50.5 34v136h96v-136q0 -21 16 -31t51 -8t35 32v143h100v-131q-4 -66 -26 -89q-42 -48 -107 -46q-66 0 -113 46q-31 -51 -123 -51q-61 0 -95 37t-34 103v131zM-295 503l545 141v-98l-545 -139v96z" />
    <glyph glyph-name="afii62885" unicode="&#xfc61;" arabic-form="isolated" 
d="M-252 278h96v-136q3 -31 53.5 -34t50.5 34v136h96v-136q0 -21 16 -31t51 -8t35 32v143h100v-131q-4 -66 -26 -89q-42 -48 -107 -46q-66 0 -113 46q-31 -51 -123 -51q-61 0 -95 37t-34 103v131zM249 812q1 -132 -98 -198l-408 -231l-60 102l294 165q-92 48 -94 146
q-2 70 41 126t121 71q81 8 143 -45t61 -136zM-7 804q0 -31 21 -52t52 -21q30 0 51.5 21t21.5 52q0 30 -21.5 51.5t-51.5 21.5q-31 0 -52 -21.5t-21 -51.5z" />
    <glyph glyph-name="afii62886" unicode="&#xfc62;" arabic-form="isolated" 
d="M-246 645h96v-136q3 -31 53.5 -34t50.5 34v136h96v-136q0 -21 16 -31t51 -8t35 32v143h100v-131q-4 -66 -26 -89q-42 -48 -107 -46q-66 0 -113 46q-31 -51 -123 -51q-61 0 -95 37t-34 103v131zM-279 99l545 141v-98l-545 -139v96z" />
    <glyph glyph-name="afii52399" unicode="&#x621;" horiz-adv-x="952" arabic-form="isolated" 
d="M880 189l-542 -228l-47 131l187 75q-28 17 -46.5 38.5t-29 45t-14 48.5t-2.5 50q2 48 21.5 89t51.5 71.5t73.5 48.5t85.5 20.5t88.5 -12.5t83.5 -51l-61 -130q-33 28 -70.5 36.5t-76.5 -10.5q-20 -10 -28.5 -34.5t-5.5 -50.5t18 -46.5t41 -21.5q32 -2 87 16.5t124 52.5z
" />
    <glyph glyph-name="afii62753" unicode="&#x622;" horiz-adv-x="655" arabic-form="final" 
d="M683 1595h-472q-93 3 -136.5 -40.5t-86.5 -125.5l-177 66q76 184 133 227q48 41 101 59t140 20h498v-206zM690 0q-299 0 -409 111q-78 86 -78 241v1082h229v-985q0 -154 41 -188t217 -34v-227z" />
    <glyph glyph-name="afii62754" unicode="&#x623;" horiz-adv-x="655" arabic-form="final" 
d="M576 1718l-458 -166l-31 101l104 39q-38 33 -50.5 74t-5.5 81.5t31 78t59 64t79 38.5t91 2q28 -5 51.5 -19.5t49.5 -37.5l-66 -96q-25 25 -43.5 30t-34.5 7q-14 1 -30.5 -2t-30.5 -11.5t-24.5 -21.5t-12.5 -31q-2 -16 3 -29t14.5 -22.5t23 -15.5t28.5 -7q64 -7 208 50z
M690 0q-299 0 -409 111q-78 86 -78 241v1082h229v-985q0 -154 41 -188t217 -34v-227z" />
    <glyph glyph-name="afii62755" unicode="&#x624;" horiz-adv-x="1133" arabic-form="final" 
d="M1169 0h-155q0 -227 -172 -412q-74 -75 -184.5 -120.5t-231.5 -45.5h-295l-33 226h291q168 0 276.5 106.5t108.5 245.5q-270 0 -405 72q-187 90 -187 358q0 289 140 412q88 71 270 71q260 0 364 -221q58 -141 58 -465h155v-227zM784 227v219q0 136 -77 195
q-52 45 -115 45q-88 0 -125 -45q-51 -53 -51 -199q0 -125 72.5 -170t295.5 -45zM800 1236l-458 -166l-31 101l104 39q-38 33 -50.5 74t-5.5 81.5t31 78t59 64t79 38.5t91 2q28 -5 51.5 -19.5t49.5 -37.5l-66 -96q-25 25 -43.5 30t-34.5 7q-14 1 -30.5 -2t-30.5 -11.5
t-24.5 -21.5t-12.5 -31q-2 -16 3 -29t14.5 -22.5t23 -15.5t28.5 -7q64 -7 208 50z" />
    <glyph glyph-name="afii62756" unicode="&#x625;" horiz-adv-x="655" arabic-form="final" 
d="M690 0q-299 0 -409 111q-78 86 -78 241v1082h229v-985q0 -154 41 -188t217 -34v-227zM603 -461l-458 -166l-31 101l104 39q-38 33 -50.5 74t-5.5 81.5t31 78t59 64t79 38.5t91 2q28 -5 51.5 -19.5t49.5 -37.5l-66 -96q-25 25 -43.5 30t-34.5 7q-14 1 -30.5 -2
t-30.5 -11.5t-24.5 -21.5t-12.5 -31q-2 -16 3 -29t14.5 -22.5t23 -15.5t28.5 -7q64 -7 208 50z" />
    <glyph glyph-name="afii62759" unicode="&#x626;" horiz-adv-x="1636" arabic-form="final" 
d="M1673 0h-211l11 -111q0 -194 -155 -330.5t-345 -136.5h-355q-260 0 -425 199q-140 186 -140 461v407h232v-499q0 -119 84 -223q108 -119 301 -119h293q114 0 192 61q88 68 88 193q0 63 -107.5 80.5t-361.5 17.5l-20 227h919v-227zM885 886l-458 -166l-31 101l104 39
q-38 33 -50.5 74t-5.5 81.5t31 78t59 64t79 38.5t91 2q28 -5 51.5 -19.5t49.5 -37.5l-66 -96q-25 25 -43.5 30t-34.5 7q-14 1 -30.5 -2t-30.5 -11.5t-24.5 -21.5t-12.5 -31q-2 -16 3 -29t14.5 -22.5t23 -15.5t28.5 -7q64 -7 208 50z" />
    <glyph glyph-name="afii62757" unicode="&#x626;" horiz-adv-x="743" arabic-form="initial" 
d="M662 373q0 -150 -99.5 -261.5t-234.5 -111.5h-371v227h299q113 0 154 58q16 28 16 121v313h236v-346zM695 1082l-458 -166l-31 101l104 39q-38 33 -50.5 74t-5.5 81.5t31 78t59 64t79 38.5t91 2q28 -5 51.5 -19.5t49.5 -37.5l-66 -96q-25 25 -43.5 30t-34.5 7
q-14 1 -30.5 -2t-30.5 -11.5t-24.5 -21.5t-12.5 -31q-2 -16 3 -29t14.5 -22.5t23 -15.5t28.5 -7q64 -7 208 50z" />
    <glyph glyph-name="afii62758" unicode="&#x626;" horiz-adv-x="936" arabic-form="medial" 
d="M753 1058l-458 -166l-31 101l104 39q-38 33 -50.5 74t-5.5 81.5t31 78t59 64t79 38.5t91 2q28 -5 51.5 -19.5t49.5 -37.5l-66 -96q-25 25 -43.5 30t-34.5 7q-14 1 -30.5 -2t-30.5 -11.5t-24.5 -21.5t-12.5 -31q-2 -16 3 -29t14.5 -22.5t23 -15.5t28.5 -7q64 -7 208 50z
M983 0l-135 4l-68 10l-53 27l-65 51q-111 -92 -220 -92h-489v227h422q112 0 149 58q17 28 17 121v313h233v-313q0 -109 37 -142q47 -37 172 -37v-227z" />
    <glyph glyph-name="afii62763" unicode="&#x628;" horiz-adv-x="2173" arabic-form="final" 
d="M2214 0l-143 6l-97 14q-78 23 -123 72q-114 -92 -219 -92h-1202q-135 0 -231.5 116.5t-96.5 256.5v346h230v-313q0 -93 22 -121q37 -58 146 -58h1061q96 0 125 23q47 41 47 156v313h231v-313q0 -84 37 -121q57 -58 213 -58v-227zM826 -370q0 31 12 59t33 49t49 33.5
t60 12.5q31 0 59 -12.5t49 -33.5t33 -49t12 -59q0 -32 -12 -59.5t-33 -48.5t-49 -33t-59 -12q-32 0 -60 12t-49 33t-33 48.5t-12 59.5z" />
    <glyph glyph-name="afii62761" unicode="&#x628;" horiz-adv-x="743" arabic-form="initial" 
d="M237 -371q0 31 12 59t33 49t49 33.5t60 12.5q31 0 59 -12.5t49 -33.5t33 -49t12 -59q0 -32 -12 -59.5t-33 -48.5t-49 -33t-59 -12q-32 0 -60 12t-49 33t-33 48.5t-12 59.5zM662 373q0 -150 -99.5 -261.5t-234.5 -111.5h-371v227h299q113 0 154 58q16 28 16 121v313h236
v-346z" />
    <glyph glyph-name="afii62762" unicode="&#x628;" horiz-adv-x="936" arabic-form="medial" 
d="M382 -376q0 31 12 59t33 49t49 33.5t60 12.5q31 0 59 -12.5t49 -33.5t33 -49t12 -59q0 -32 -12 -59.5t-33 -48.5t-49 -33t-59 -12q-32 0 -60 12t-49 33t-33 48.5t-12 59.5zM983 0l-135 4l-68 10l-53 27l-65 51q-111 -92 -220 -92h-489v227h422q112 0 149 58q17 28 17 121
v313h233v-313q0 -109 37 -142q47 -37 172 -37v-227z" />
    <glyph glyph-name="afii62764" unicode="&#x629;" horiz-adv-x="1413" arabic-form="final" 
d="M1462 0q-162 0 -219 41q-27 12 -240 205q-129 -273 -420 -273q-178 0 -307 127t-129 312q0 125 88 254q47 73 180 202l-67 78l157 156l684 -727q84 -90 127 -125q45 -23 146 -23v-227zM804 395q0 58 -41 125l-182 182q-129 -118 -166 -178.5t-37 -128.5
q0 -57 52.5 -129.5t156.5 -72.5q101 0 166 77q51 58 51 125zM477 1411q0 31 12 59t33 49t49 33.5t60 12.5q31 0 59 -12.5t49 -33.5t33.5 -49t12.5 -59q0 -32 -12.5 -59.5t-33.5 -48.5t-49 -33t-59 -12q-32 0 -60 12t-49 33t-33 48.5t-12 59.5zM128 1411q0 31 12 59t33 49
t48.5 33.5t59.5 12.5q31 0 59 -12.5t49 -33.5t33.5 -49t12.5 -59q0 -32 -12.5 -59.5t-33.5 -48.5t-49 -33t-59 -12q-32 0 -59.5 12t-48.5 33t-33 48.5t-12 59.5z" />
    <glyph glyph-name="afii62767" unicode="&#x62a;" horiz-adv-x="2173" arabic-form="final" 
d="M2214 0l-143 6l-97 14q-78 23 -123 72q-114 -92 -219 -92h-1202q-135 0 -231.5 116.5t-96.5 256.5v346h230v-313q0 -93 22 -121q37 -58 146 -58h1061q96 0 125 23q47 41 47 156v313h231v-313q0 -84 37 -121q57 -58 213 -58v-227zM1079 1081q0 31 12 59t33 49t49 33.5
t60 12.5q31 0 59 -12.5t49 -33.5t33.5 -49t12.5 -59q0 -32 -12.5 -59.5t-33.5 -48.5t-49 -33t-59 -12q-32 0 -60 12t-49 33t-33 48.5t-12 59.5zM730 1081q0 31 12 59t33 49t48.5 33.5t59.5 12.5q31 0 59 -12.5t49 -33.5t33.5 -49t12.5 -59q0 -32 -12.5 -59.5t-33.5 -48.5
t-49 -33t-59 -12q-32 0 -59.5 12t-48.5 33t-33 48.5t-12 59.5z" />
    <glyph glyph-name="afii62765" unicode="&#x62a;" horiz-adv-x="743" arabic-form="initial" 
d="M662 373q0 -150 -99.5 -261.5t-234.5 -111.5h-371v227h299q113 0 154 58q16 28 16 121v313h236v-346zM371 1107q0 31 12 59t33 49t49 33.5t60 12.5q31 0 59 -12.5t49 -33.5t33.5 -49t12.5 -59q0 -32 -12.5 -59.5t-33.5 -48.5t-49 -33t-59 -12q-32 0 -60 12t-49 33
t-33 48.5t-12 59.5zM22 1107q0 31 12 59t33 49t48.5 33.5t59.5 12.5q31 0 59 -12.5t49 -33.5t33.5 -49t12.5 -59q0 -32 -12.5 -59.5t-33.5 -48.5t-49 -33t-59 -12q-32 0 -59.5 12t-48.5 33t-33 48.5t-12 59.5z" />
    <glyph glyph-name="afii62766" unicode="&#x62a;" horiz-adv-x="936" arabic-form="medial" 
d="M983 0l-135 4l-68 10l-53 27l-65 51q-111 -92 -220 -92h-489v227h422q112 0 149 58q17 28 17 121v313h233v-313q0 -109 37 -142q47 -37 172 -37v-227zM450 1081q0 31 12 59t33 49t49 33.5t60 12.5q31 0 59 -12.5t49 -33.5t33.5 -49t12.5 -59q0 -32 -12.5 -59.5
t-33.5 -48.5t-49 -33t-59 -12q-32 0 -60 12t-49 33t-33 48.5t-12 59.5zM101 1081q0 31 12 59t33 49t48.5 33.5t59.5 12.5q31 0 59 -12.5t49 -33.5t33.5 -49t12.5 -59q0 -32 -12.5 -59.5t-33.5 -48.5t-49 -33t-59 -12q-32 0 -59.5 12t-48.5 33t-33 48.5t-12 59.5z" />
    <glyph glyph-name="afii62770" unicode="&#x62b;" horiz-adv-x="2173" arabic-form="final" 
d="M2214 0l-143 6l-97 14q-78 23 -123 72q-114 -92 -219 -92h-1202q-135 0 -231.5 116.5t-96.5 256.5v346h230v-313q0 -93 22 -121q37 -58 146 -58h1061q96 0 125 23q47 41 47 156v313h231v-313q0 -84 37 -121q57 -58 213 -58v-227zM1178 1427q0 -32 -12.5 -60t-33.5 -49
t-49 -33t-59 -12q-32 0 -59.5 12t-48.5 33t-33 49t-12 60q0 31 12 59t33 49t48.5 33.5t59.5 12.5q31 0 59 -12.5t49 -33.5t33.5 -49t12.5 -59zM1002 1079q0 -32 -12.5 -60t-33.5 -49t-49 -33t-59 -12q-32 0 -59.5 12t-48.5 33t-33 49t-12 60q0 31 12 59t33 49t48.5 33.5
t59.5 12.5q31 0 59 -12.5t49 -33.5t33.5 -49t12.5 -59zM1372 1079q0 -32 -12.5 -60t-33.5 -49t-49 -33t-59 -12q-32 0 -60 12t-49 33t-33 49t-12 60q0 31 12 59t33 49t49 33.5t60 12.5q31 0 59 -12.5t49 -33.5t33.5 -49t12.5 -59z" />
    <glyph glyph-name="afii62768" unicode="&#x62b;" horiz-adv-x="743" arabic-form="initial" 
d="M662 373q0 -150 -99.5 -261.5t-234.5 -111.5h-371v227h299q113 0 154 58q16 28 16 121v313h236v-346zM485 1451q0 -32 -12.5 -60t-33.5 -49t-49 -33t-59 -12q-32 0 -59.5 12t-48.5 33t-33 49t-12 60q0 31 12 59t33 49t48.5 33.5t59.5 12.5q31 0 59 -12.5t49 -33.5
t33.5 -49t12.5 -59zM309 1103q0 -32 -12.5 -60t-33.5 -49t-49 -33t-59 -12q-32 0 -59.5 12t-48.5 33t-33 49t-12 60q0 31 12 59t33 49t48.5 33.5t59.5 12.5q31 0 59 -12.5t49 -33.5t33.5 -49t12.5 -59zM679 1103q0 -32 -12.5 -60t-33.5 -49t-49 -33t-59 -12q-32 0 -60 12
t-49 33t-33 49t-12 60q0 31 12 59t33 49t49 33.5t60 12.5q31 0 59 -12.5t49 -33.5t33.5 -49t12.5 -59z" />
    <glyph glyph-name="afii62769" unicode="&#x62b;" horiz-adv-x="936" arabic-form="medial" 
d="M983 0l-135 4l-68 10l-53 27l-65 51q-111 -92 -220 -92h-489v227h422q112 0 149 58q17 28 17 121v313h233v-313q0 -109 37 -142q47 -37 172 -37v-227zM648 1426q0 -32 -12.5 -60t-33.5 -49t-49 -33t-59 -12q-32 0 -59.5 12t-48.5 33t-33 49t-12 60q0 31 12 59t33 49
t48.5 33.5t59.5 12.5q31 0 59 -12.5t49 -33.5t33.5 -49t12.5 -59zM472 1078q0 -32 -12.5 -60t-33.5 -49t-49 -33t-59 -12q-32 0 -59.5 12t-48.5 33t-33 49t-12 60q0 31 12 59t33 49t48.5 33.5t59.5 12.5q31 0 59 -12.5t49 -33.5t33.5 -49t12.5 -59zM842 1078
q0 -32 -12.5 -60t-33.5 -49t-49 -33t-59 -12q-32 0 -60 12t-49 33t-33 49t-12 60q0 31 12 59t33 49t49 33.5t60 12.5q31 0 59 -12.5t49 -33.5t33.5 -49t12.5 -59z" />
    <glyph glyph-name="afii62773" unicode="&#x62c;" horiz-adv-x="1513" arabic-form="final" 
d="M806 -427q0 31 12 59t33 49t49 33.5t60 12.5q31 0 59 -12.5t49 -33.5t33 -49t12 -59q0 -32 -12 -59.5t-33 -48.5t-49 -33t-59 -12q-32 0 -60 12t-49 33t-33 48.5t-12 59.5zM1572 0q-192 0 -293 51q-71 37 -102 109l-29 110l-450 -250q-303 -172 -303 -426
q0 -182 151.5 -325t321.5 -143h667l19 -232h-627q-358 0 -584 260q-165 203 -165 447v47l4 51q32 317 329 473l705 385q-55 98 -153.5 115.5t-608.5 17.5l-33 223h551q230 0 354.5 -120.5t124.5 -350.5l-208 -118q10 -60 91 -78.5t238 -18.5v-227z" />
    <glyph glyph-name="afii62771" unicode="&#x62c;" horiz-adv-x="1309" arabic-form="initial" 
d="M1264 442l-525 -297q-172 -98 -320.5 -121.5t-471.5 -23.5v227h182q131 0 174 13q143 16 268 73q84 35 226 123l217 119q-33 86 -156 117q-110 18 -592 18l-33 223h564q467 0 467 -471zM657 -346q0 31 12 59t33 49t49 33.5t60 12.5q31 0 59 -12.5t49 -33.5t33 -49t12 -59
q0 -32 -12 -59.5t-33 -48.5t-49 -33t-59 -12q-32 0 -60 12t-49 33t-33 48.5t-12 59.5z" />
    <glyph glyph-name="afii62772" unicode="&#x62c;" horiz-adv-x="1309" arabic-form="medial" 
d="M1346 0q-183 0 -269 43q-57 29 -94 109l-27 118q-139 -88 -270 -151q-115 -51 -188 -78q-156 -41 -551 -41v227h182q131 0 174 13q143 16 268 73q84 35 226 123l217 119q-33 86 -156 117q-110 18 -592 18l-33 223h564q223 0 345 -120.5t122 -352.5l-213 -116
q0 -97 295 -97v-227zM552 -369q0 31 12 59t33 49t49 33.5t60 12.5q31 0 59 -12.5t49 -33.5t33 -49t12 -59q0 -32 -12 -59.5t-33 -48.5t-49 -33t-59 -12q-32 0 -60 12t-49 33t-33 48.5t-12 59.5z" />
    <glyph glyph-name="afii62776" unicode="&#x62d;" horiz-adv-x="1513" arabic-form="final" 
d="M1572 0q-192 0 -293 51q-71 37 -102 109l-29 110l-450 -250q-303 -172 -303 -426q0 -182 151.5 -325t321.5 -143h667l19 -232h-627q-358 0 -584 260q-165 203 -165 447v47l4 51q32 317 329 473l705 385q-55 98 -153.5 115.5t-608.5 17.5l-33 223h551q230 0 354.5 -120.5
t124.5 -350.5l-208 -118q10 -60 91 -78.5t238 -18.5v-227z" />
    <glyph glyph-name="afii62774" unicode="&#x62d;" horiz-adv-x="1309" arabic-form="initial" 
d="M1264 442l-525 -297q-172 -98 -320.5 -121.5t-471.5 -23.5v227h182q131 0 174 13q143 16 268 73q84 35 226 123l217 119q-33 86 -156 117q-110 18 -592 18l-33 223h564q467 0 467 -471z" />
    <glyph glyph-name="afii62775" unicode="&#x62d;" horiz-adv-x="1309" arabic-form="medial" 
d="M1346 0q-183 0 -269 43q-57 29 -94 109l-27 118q-139 -88 -270 -151q-115 -51 -188 -78q-156 -41 -551 -41v227h182q131 0 174 13q143 16 268 73q84 35 226 123l217 119q-33 86 -156 117q-110 18 -592 18l-33 223h564q223 0 345 -120.5t122 -352.5l-213 -116
q0 -97 295 -97v-227z" />
    <glyph glyph-name="afii62779" unicode="&#x62e;" horiz-adv-x="1513" arabic-form="final" 
d="M1572 0q-192 0 -293 51q-71 37 -102 109l-29 110l-450 -250q-303 -172 -303 -426q0 -182 151.5 -325t321.5 -143h667l19 -232h-627q-358 0 -584 260q-165 203 -165 447v47l4 51q32 317 329 473l705 385q-55 98 -153.5 115.5t-608.5 17.5l-33 223h551q230 0 354.5 -120.5
t124.5 -350.5l-208 -118q10 -60 91 -78.5t238 -18.5v-227zM675 1273q0 31 12 59t33 49t49 33.5t60 12.5q31 0 59 -12.5t49 -33.5t33 -49t12 -59q0 -32 -12 -59.5t-33 -48.5t-49 -33t-59 -12q-32 0 -60 12t-49 33t-33 48.5t-12 59.5z" />
    <glyph glyph-name="afii62777" unicode="&#x62e;" horiz-adv-x="1309" arabic-form="initial" 
d="M1264 442l-525 -297q-172 -98 -320.5 -121.5t-471.5 -23.5v227h182q131 0 174 13q143 16 268 73q84 35 226 123l217 119q-33 86 -156 117q-110 18 -592 18l-33 223h564q467 0 467 -471zM456 1271q0 31 12 59t33 49t49 33.5t60 12.5q31 0 59 -12.5t49 -33.5t33 -49t12 -59
q0 -32 -12 -59.5t-33 -48.5t-49 -33t-59 -12q-32 0 -60 12t-49 33t-33 48.5t-12 59.5z" />
    <glyph glyph-name="afii62778" unicode="&#x62e;" horiz-adv-x="1309" arabic-form="medial" 
d="M1346 0q-183 0 -269 43q-57 29 -94 109l-27 118q-139 -88 -270 -151q-115 -51 -188 -78q-156 -41 -551 -41v227h182q131 0 174 13q143 16 268 73q84 35 226 123l217 119q-33 86 -156 117q-110 18 -592 18l-33 223h564q223 0 345 -120.5t122 -352.5l-213 -116
q0 -97 295 -97v-227zM476 1245q0 31 12 59t33 49t49 33.5t60 12.5q31 0 59 -12.5t49 -33.5t33 -49t12 -59q0 -32 -12 -59.5t-33 -48.5t-49 -33t-59 -12q-32 0 -60 12t-49 33t-33 48.5t-12 59.5z" />
    <glyph glyph-name="afii62780" unicode="&#x62f;" horiz-adv-x="1569" arabic-form="final" 
d="M1595 0h-109q-129 0 -287 160q-39 -62 -96 -113q-74 -47 -213 -47h-702l-33 227h723q129 0 129 86q0 52 -39 88l-512 545l153 156l687 -727q102 -105 153 -131q31 -17 146 -17v-227z" />
    <glyph glyph-name="afii62781" unicode="&#x630;" horiz-adv-x="1569" arabic-form="final" 
d="M1595 0h-109q-129 0 -287 160q-39 -62 -96 -113q-74 -47 -213 -47h-702l-33 227h723q129 0 129 86q0 52 -39 88l-512 545l153 156l687 -727q102 -105 153 -131q31 -17 146 -17v-227zM366 1401q0 31 12 59t33 49t49 33.5t60 12.5q31 0 59 -12.5t49 -33.5t33 -49t12 -59
q0 -32 -12 -59.5t-33 -48.5t-49 -33t-59 -12q-32 0 -60 12t-49 33t-33 48.5t-12 59.5z" />
    <glyph glyph-name="afii62782" unicode="&#x631;" horiz-adv-x="1163" arabic-form="final" 
d="M1200 0q-170 0 -244 109q0 -316 -178 -521q-166 -166 -399 -166h-295l-41 226h315q142 0 255.5 96t113.5 240v735h225v-330q0 -162 248 -162v-227z" />
    <glyph glyph-name="afii62783" unicode="&#x632;" horiz-adv-x="1163" arabic-form="final" 
d="M1200 0q-170 0 -244 109q0 -316 -178 -521q-166 -166 -399 -166h-295l-41 226h315q142 0 255.5 96t113.5 240v735h225v-330q0 -162 248 -162v-227zM627 1097q0 31 12 59t33 49t49 33.5t60 12.5q31 0 59 -12.5t49 -33.5t33 -49t12 -59q0 -32 -12 -59.5t-33 -48.5t-49 -33
t-59 -12q-32 0 -60 12t-49 33t-33 48.5t-12 59.5z" />
    <glyph glyph-name="afii62786" unicode="&#x633;" horiz-adv-x="2916" arabic-form="final" 
d="M2959 0l-94 4q-43 0 -67 10q-99 17 -156 111q-100 -150 -281 -150q-172 0 -299 156q-127 -162 -284 -162q-129 0 -238 103q0 -281 -164 -465.5t-399 -184.5h-359q-223 0 -392 175.5t-169 416.5v475h228v-485q0 -149 104.5 -252.5t259.5 -103.5h297q160 0 262.5 100
t102.5 256v715h229v-340q0 -78 72 -141q57 -45 125 -45q151 0 151 145v381h234v-338q0 -78 67 -143q58 -45 125 -45q160 0 160 145v381h225v-354q0 -74 82 -119l72 -13l106 -6v-227z" />
    <glyph glyph-name="afii62784" unicode="&#x633;" horiz-adv-x="1845" arabic-form="initial" 
d="M1763 365q0 -189 -92 -290.5t-227 -101.5q-166 0 -316 156q-131 -154 -280 -154q-148 0 -311 185q-58 -62 -138 -119q-75 -41 -159 -41h-291v227h270q84 0 125 38t41 134v320h219v-338q0 -78 72 -143q61 -45 131 -45q154 0 154 145v381h221v-338q0 -86 75 -143
q60 -45 125 -45q158 0 158 145v381h223v-354z" />
    <glyph glyph-name="afii62785" unicode="&#x633;" horiz-adv-x="1985" arabic-form="medial" 
d="M2013 0l-94 4q-47 0 -70 10q-96 23 -145 111q-107 -152 -260 -152q-164 0 -316 156q-139 -156 -327 -156q-189 0 -312 162q-57 -82 -213 -119q-94 -16 -339 -16v227q303 0 367.5 27t64.5 172v293h223v-340q0 -88 74 -141q61 -45 125 -45q151 0 151 145v381h227v-338
q0 -86 72 -143q59 -45 127 -45q156 0 156 145v381h227v-354q0 -74 84 -119l72 -13l106 -6v-227z" />
    <glyph glyph-name="afii62789" unicode="&#x634;" horiz-adv-x="2916" arabic-form="final" 
d="M2959 0l-94 4q-43 0 -67 10q-99 17 -156 111q-100 -150 -281 -150q-172 0 -299 156q-127 -162 -284 -162q-129 0 -238 103q0 -281 -164 -465.5t-399 -184.5h-359q-223 0 -392 175.5t-169 416.5v475h228v-485q0 -149 104.5 -252.5t259.5 -103.5h297q160 0 262.5 100
t102.5 256v715h229v-340q0 -78 72 -141q57 -45 125 -45q151 0 151 145v381h234v-338q0 -78 67 -143q58 -45 125 -45q160 0 160 145v381h225v-354q0 -74 82 -119l72 -13l106 -6v-227zM2166 1441q0 -32 -12.5 -60t-33.5 -49t-49 -33t-59 -12q-32 0 -59.5 12t-48.5 33t-33 49
t-12 60q0 31 12 59t33 49t48.5 33.5t59.5 12.5q31 0 59 -12.5t49 -33.5t33.5 -49t12.5 -59zM1990 1093q0 -32 -12.5 -60t-33.5 -49t-49 -33t-59 -12q-32 0 -59.5 12t-48.5 33t-33 49t-12 60q0 31 12 59t33 49t48.5 33.5t59.5 12.5q31 0 59 -12.5t49 -33.5t33.5 -49t12.5 -59
zM2360 1093q0 -32 -12.5 -60t-33.5 -49t-49 -33t-59 -12q-32 0 -60 12t-49 33t-33 49t-12 60q0 31 12 59t33 49t49 33.5t60 12.5q31 0 59 -12.5t49 -33.5t33.5 -49t12.5 -59z" />
    <glyph glyph-name="afii62787" unicode="&#x634;" horiz-adv-x="1845" arabic-form="initial" 
d="M1763 365q0 -189 -92 -290.5t-227 -101.5q-166 0 -316 156q-131 -154 -280 -154q-148 0 -311 185q-58 -62 -138 -119q-75 -41 -159 -41h-291v227h270q84 0 125 38t41 134v320h219v-338q0 -78 72 -143q61 -45 131 -45q154 0 154 145v381h221v-338q0 -86 75 -143
q60 -45 125 -45q158 0 158 145v381h223v-354zM1283 1454q0 -32 -12.5 -60t-33.5 -49t-49 -33t-59 -12q-32 0 -59.5 12t-48.5 33t-33 49t-12 60q0 31 12 59t33 49t48.5 33.5t59.5 12.5q31 0 59 -12.5t49 -33.5t33.5 -49t12.5 -59zM1107 1106q0 -32 -12.5 -60t-33.5 -49
t-49 -33t-59 -12q-32 0 -59.5 12t-48.5 33t-33 49t-12 60q0 31 12 59t33 49t48.5 33.5t59.5 12.5q31 0 59 -12.5t49 -33.5t33.5 -49t12.5 -59zM1477 1106q0 -32 -12.5 -60t-33.5 -49t-49 -33t-59 -12q-32 0 -60 12t-49 33t-33 49t-12 60q0 31 12 59t33 49t49 33.5t60 12.5
q31 0 59 -12.5t49 -33.5t33.5 -49t12.5 -59z" />
    <glyph glyph-name="afii62788" unicode="&#x634;" horiz-adv-x="1985" arabic-form="medial" 
d="M2013 0l-94 4q-47 0 -70 10q-96 23 -145 111q-107 -152 -260 -152q-164 0 -316 156q-139 -156 -327 -156q-189 0 -312 162q-57 -82 -213 -119q-94 -16 -339 -16v227q303 0 367.5 27t64.5 172v293h223v-340q0 -88 74 -141q61 -45 125 -45q151 0 151 145v381h227v-338
q0 -86 72 -143q59 -45 127 -45q156 0 156 145v381h227v-354q0 -74 84 -119l72 -13l106 -6v-227zM1207 1428q0 -32 -12.5 -60t-33.5 -49t-49 -33t-59 -12q-32 0 -59.5 12t-48.5 33t-33 49t-12 60q0 31 12 59t33 49t48.5 33.5t59.5 12.5q31 0 59 -12.5t49 -33.5t33.5 -49
t12.5 -59zM1031 1080q0 -32 -12.5 -60t-33.5 -49t-49 -33t-59 -12q-32 0 -59.5 12t-48.5 33t-33 49t-12 60q0 31 12 59t33 49t48.5 33.5t59.5 12.5q31 0 59 -12.5t49 -33.5t33.5 -49t12.5 -59zM1401 1080q0 -32 -12.5 -60t-33.5 -49t-49 -33t-59 -12q-32 0 -60 12t-49 33
t-33 49t-12 60q0 31 12 59t33 49t49 33.5t60 12.5q31 0 59 -12.5t49 -33.5t33.5 -49t12.5 -59z" />
    <glyph glyph-name="afii62792" unicode="&#x635;" horiz-adv-x="2859" arabic-form="final" 
d="M2900 0h-1038q-256 0 -303 121q0 -338 -170 -531q-152 -168 -406 -168h-354q-238 0 -396 183q-67 82 -114 198q-41 109 -41 238v448h219v-505q0 -129 103.5 -232.5t244.5 -103.5h322q131 0 254 125q104 106 104 211v735h229v-340q0 -152 218 -152q272 688 626 688
q103 0 202 -59t153.5 -166.5t54.5 -249.5q0 -92 -37 -213h129v-227zM2572 449q0 145 -67 213q-11 8 -68 20q-106 0 -231 -145q-95 -101 -203 -310h444q125 0 125 222z" />
    <glyph glyph-name="afii62790" unicode="&#x635;" horiz-adv-x="1882" arabic-form="initial" 
d="M1839 442q0 -100 -33.5 -216.5t-85.5 -157.5q-82 -68 -280 -68h-582q-235 0 -323 182q-136 -182 -312 -182h-274v227h254q159 0 159 172v320h226v-297q0 -195 223 -195q125 330 289 508t344 178q74 0 174 -55q221 -125 221 -416zM1612 449q0 143 -72 213q-12 8 -67 20
q-95 0 -232 -145q-106 -115 -203 -310h445q129 0 129 222z" />
    <glyph glyph-name="afii62791" unicode="&#x635;" horiz-adv-x="1985" arabic-form="medial" 
d="M2013 0h-1155q-235 0 -323 182q-136 -182 -312 -182h-274v227h254q159 0 159 172v320h226v-297q0 -195 223 -195q125 330 289 508t344 178q84 0 178 -55q217 -129 217 -416q0 -90 -31 -215h205v-227zM1612 449q0 143 -72 213q-12 8 -67 20q-95 0 -232 -145
q-106 -115 -203 -310h445q129 0 129 222z" />
    <glyph glyph-name="afii62795" unicode="&#x636;" horiz-adv-x="2859" arabic-form="final" 
d="M2900 0h-1038q-256 0 -303 121q0 -338 -170 -531q-152 -168 -406 -168h-354q-238 0 -396 183q-67 82 -114 198q-41 109 -41 238v448h219v-505q0 -129 103.5 -232.5t244.5 -103.5h322q131 0 254 125q104 106 104 211v735h229v-340q0 -152 218 -152q272 688 626 688
q103 0 202 -59t153.5 -166.5t54.5 -249.5q0 -92 -37 -213h129v-227zM2572 449q0 145 -67 213q-11 8 -68 20q-106 0 -231 -145q-95 -101 -203 -310h444q125 0 125 222zM1630 1197q0 31 12 59t33 49t49 33.5t60 12.5q31 0 59 -12.5t49 -33.5t33 -49t12 -59q0 -32 -12 -59.5
t-33 -48.5t-49 -33t-59 -12q-32 0 -60 12t-49 33t-33 48.5t-12 59.5z" />
    <glyph glyph-name="afii62793" unicode="&#x636;" horiz-adv-x="1882" arabic-form="initial" 
d="M1839 442q0 -100 -33.5 -216.5t-85.5 -157.5q-82 -68 -280 -68h-582q-235 0 -323 182q-136 -182 -312 -182h-274v227h254q159 0 159 172v320h226v-297q0 -195 223 -195q125 330 289 508t344 178q74 0 174 -55q221 -125 221 -416zM1612 449q0 143 -72 213q-12 8 -67 20
q-95 0 -232 -145q-106 -115 -203 -310h445q129 0 129 222zM699 1245q0 31 12 59t33 49t49 33.5t60 12.5q31 0 59 -12.5t49 -33.5t33 -49t12 -59q0 -32 -12 -59.5t-33 -48.5t-49 -33t-59 -12q-32 0 -60 12t-49 33t-33 48.5t-12 59.5z" />
    <glyph glyph-name="afii62794" unicode="&#x636;" horiz-adv-x="1985" arabic-form="medial" 
d="M2013 0h-1155q-235 0 -323 182q-136 -182 -312 -182h-274v227h254q159 0 159 172v320h226v-297q0 -195 223 -195q125 330 289 508t344 178q84 0 178 -55q217 -129 217 -416q0 -90 -31 -215h205v-227zM1612 449q0 143 -72 213q-12 8 -67 20q-95 0 -232 -145
q-106 -115 -203 -310h445q129 0 129 222zM745 1246q0 31 12 59t33 49t49 33.5t60 12.5q31 0 59 -12.5t49 -33.5t33 -49t12 -59q0 -32 -12 -59.5t-33 -48.5t-49 -33t-59 -12q-32 0 -60 12t-49 33t-33 48.5t-12 59.5z" />
    <glyph glyph-name="afii62798" unicode="&#x637;" horiz-adv-x="1325" arabic-form="final" 
d="M1348 0h-1250l-47 227h193v1239h229v-817q209 264 391 264q66 0 174 -55q215 -125 215 -432v-31l-6 -57q0 -37 -24 -111h125v-227zM1028 457q0 145 -72 205q-10 8 -67 20q-92 0 -227 -145q-125 -121 -205 -310h438q47 0 98 70q35 65 35 160z" />
    <glyph glyph-name="afii62796" unicode="&#x637;" horiz-adv-x="1249" arabic-form="initial" 
d="M1165 416q0 -172 -90 -287q-98 -129 -278 -129h-840v227h195v1239h227v-815q205 262 389 262q74 0 175 -56t161.5 -181t60.5 -260zM930 446q0 156 -76 216q-8 8 -63 20q-95 0 -234 -145q-115 -121 -203 -310h447q129 0 129 219z" />
    <glyph glyph-name="afii62797" unicode="&#x637;" horiz-adv-x="1202" arabic-form="medial" 
d="M1227 0h-1290v227h165v1239h226v-817q209 264 399 264q64 0 166 -55q215 -125 215 -426q0 -119 -33 -205h152v-227zM883 457q0 145 -68 205q-10 8 -67 20q-97 0 -232 -145q-117 -121 -205 -310h443q47 0 98 70q31 65 31 160z" />
    <glyph glyph-name="afii62801" unicode="&#x638;" horiz-adv-x="1325" arabic-form="final" 
d="M1348 0h-1250l-47 227h193v1239h229v-817q209 264 391 264q66 0 174 -55q215 -125 215 -432v-31l-6 -57q0 -37 -24 -111h125v-227zM1028 457q0 145 -72 205q-10 8 -67 20q-92 0 -227 -145q-125 -121 -205 -310h438q47 0 98 70q35 65 35 160zM796 1285q0 31 12 59t33 49
t49 33.5t60 12.5q31 0 59 -12.5t49 -33.5t33 -49t12 -59q0 -32 -12 -59.5t-33 -48.5t-49 -33t-59 -12q-32 0 -60 12t-49 33t-33 48.5t-12 59.5z" />
    <glyph glyph-name="afii62799" unicode="&#x638;" horiz-adv-x="1249" arabic-form="initial" 
d="M635 1251q0 31 12 59t33 49t49 33.5t60 12.5q31 0 59 -12.5t49 -33.5t33 -49t12 -59q0 -32 -12 -59.5t-33 -48.5t-49 -33t-59 -12q-32 0 -60 12t-49 33t-33 48.5t-12 59.5zM1165 416q0 -172 -90 -287q-98 -129 -278 -129h-840v227h195v1239h227v-815q205 262 389 262
q74 0 175 -56t161.5 -181t60.5 -260zM930 446q0 156 -76 216q-8 8 -63 20q-95 0 -234 -145q-115 -121 -203 -310h447q129 0 129 219z" />
    <glyph glyph-name="afii62800" unicode="&#x638;" horiz-adv-x="1202" arabic-form="medial" 
d="M593 1240q0 31 12 59t33 49t49 33.5t60 12.5q31 0 59 -12.5t49 -33.5t33 -49t12 -59q0 -32 -12 -59.5t-33 -48.5t-49 -33t-59 -12q-32 0 -60 12t-49 33t-33 48.5t-12 59.5zM1227 0h-1290v227h165v1239h226v-817q209 264 399 264q64 0 166 -55q215 -125 215 -426
q0 -119 -33 -205h152v-227zM883 457q0 145 -68 205q-10 8 -67 20q-97 0 -232 -145q-117 -121 -205 -310h443q47 0 98 70q31 65 31 160z" />
    <glyph glyph-name="afii62804" unicode="&#x639;" horiz-adv-x="1515" arabic-form="final" 
d="M1566 0q-245 0 -342 20q-194 33 -288 146q-551 -229 -551 -578q0 -166 155 -327q144 -135 308 -135h667l21 -232h-629q-307 0 -522 223q-113 105 -165 229t-52 263q0 215 140 396t458 323l-308 295l82 141l74 149h485q291 0 326 -251q0 -78 -16 -117q-9 -41 -41 -88
q-62 -88 -234 -187q99 -43 432 -43v-227zM1196 623q0 18 -15 32q-26 25 -98 37h-365l250 -266q228 119 228 197z" />
    <glyph glyph-name="afii62802" unicode="&#x639;" horiz-adv-x="1149" arabic-form="initial" 
d="M1102 0h-1153v227h325q-71 162 -71 283q0 180 139 307q53 45 135 72l78 16l104 8q91 0 183 -45q51 -20 84 -51q47 -26 92 -74l-113 -178q-176 137 -303 137q-123 0 -166 -120l-16 -58v-41q0 -67 29 -131q51 -125 155 -125h457z" />
    <glyph glyph-name="afii62803" unicode="&#x639;" horiz-adv-x="1055" arabic-form="medial" 
d="M1096 0q-228 0 -321 21.5t-240 144.5q-129 -109 -289 -152q-86 -14 -299 -14v227q317 0 401 84l-317 312l73 141l78 149h488q293 0 319 -251q0 -78 -8 -110t-45 -93q-53 -74 -217 -178q133 -54 377 -54v-227zM743 618q0 23 -13 38.5t-91 35.5h-365l250 -262
q219 107 219 188z" />
    <glyph glyph-name="afii62807" unicode="&#x63a;" horiz-adv-x="1515" arabic-form="final" 
d="M815 1250q0 31 12 59t33 49t49 33.5t60 12.5q31 0 59 -12.5t49 -33.5t33 -49t12 -59q0 -32 -12 -59.5t-33 -48.5t-49 -33t-59 -12q-32 0 -60 12t-49 33t-33 48.5t-12 59.5zM1566 0q-245 0 -342 20q-194 33 -288 146q-551 -229 -551 -578q0 -166 155 -327
q144 -135 308 -135h667l21 -232h-629q-307 0 -522 223q-113 105 -165 229t-52 263q0 215 140 396t458 323l-308 295l82 141l74 149h485q291 0 326 -251q0 -78 -16 -117q-9 -41 -41 -88q-62 -88 -234 -187q99 -43 432 -43v-227zM1196 623q0 18 -15 32q-26 25 -98 37h-365
l250 -266q228 119 228 197z" />
    <glyph glyph-name="afii62805" unicode="&#x63a;" horiz-adv-x="1149" arabic-form="initial" 
d="M1102 0h-1153v227h325q-71 162 -71 283q0 180 139 307q53 45 135 72l78 16l104 8q91 0 183 -45q51 -20 84 -51q47 -26 92 -74l-113 -178q-176 137 -303 137q-123 0 -166 -120l-16 -58v-41q0 -67 29 -131q51 -125 155 -125h457zM528 1243q0 31 12 59t33 49t49 33.5
t60 12.5q31 0 59 -12.5t49 -33.5t33 -49t12 -59q0 -32 -12 -59.5t-33 -48.5t-49 -33t-59 -12q-32 0 -60 12t-49 33t-33 48.5t-12 59.5z" />
    <glyph glyph-name="afii62806" unicode="&#x63a;" horiz-adv-x="1055" arabic-form="medial" 
d="M1096 0q-228 0 -321 21.5t-240 144.5q-129 -109 -289 -152q-86 -14 -299 -14v227q317 0 401 84l-317 312l73 141l78 149h488q293 0 319 -251q0 -78 -8 -110t-45 -93q-53 -74 -217 -178q133 -54 377 -54v-227zM743 618q0 23 -13 38.5t-91 35.5h-365l250 -262
q219 107 219 188zM386 1276q0 31 12 59t33 49t49 33.5t60 12.5q31 0 59 -12.5t49 -33.5t33 -49t12 -59q0 -32 -12 -59.5t-33 -48.5t-49 -33t-59 -12q-32 0 -60 12t-49 33t-33 48.5t-12 59.5z" />
    <glyph glyph-name="afii62810" unicode="&#x641;" horiz-adv-x="2054" arabic-form="final" 
d="M2085 0q-399 0 -494 51q-32 -47 -432 -47l-760 -4q-129 0 -227 129q-74 111 -74 244v346h226v-313q0 -179 170 -179h790q-125 146 -125 310q0 145 109.5 260.5t296.5 115.5q166 0 280 -127q101 -120 101 -286q0 -148 -80 -273h219v-227zM1741 489q0 78 -59.5 140.5
t-127.5 62.5q-57 0 -121.5 -50t-64.5 -122q0 -131 234 -244q139 86 139 213zM1394 1239q0 31 12 59t33 49t49 33.5t60 12.5q31 0 59 -12.5t49 -33.5t33 -49t12 -59q0 -32 -12 -59.5t-33 -48.5t-49 -33t-59 -12q-32 0 -60 12t-49 33t-33 48.5t-12 59.5z" />
    <glyph glyph-name="afii62808" unicode="&#x641;" horiz-adv-x="1066" arabic-form="initial" 
d="M1001 381q0 -199 -133 -297q-110 -84 -223 -84h-686v227h690q129 0 129 172q-321 0 -405 21q-191 78 -191 313q0 172 117 270.5t266 98.5q168 0 289 -113q72 -63 108.5 -147t36.5 -197zM760 612q0 121 -74 199q-57 53 -141 53q-66 0 -108 -33.5t-42 -82.5q0 -107 62 -123
q20 -13 151 -13h152zM427 1443q0 31 12 59t33 49t49 33.5t60 12.5q31 0 59 -12.5t49 -33.5t33 -49t12 -59q0 -32 -12 -59.5t-33 -48.5t-49 -33t-59 -12q-32 0 -60 12t-49 33t-33 48.5t-12 59.5z" />
    <glyph glyph-name="afii62809" unicode="&#x641;" horiz-adv-x="1087" arabic-form="medial" 
d="M1149 0l-74 6h-61l-162 4q-94 0 -182 15l-103 36q-98 -61 -649 -61v227h338q-125 146 -125 310q0 159 110.5 267.5t299.5 108.5q176 0 284 -127q97 -120 97 -288q0 -150 -80 -271h307v-227zM717 489q0 78 -62.5 140.5t-128.5 62.5q-59 0 -118.5 -54t-59.5 -122
q0 -137 230 -240q139 105 139 213zM403 1275q0 31 12 59t33 49t49 33.5t60 12.5q31 0 59 -12.5t49 -33.5t33 -49t12 -59q0 -32 -12 -59.5t-33 -48.5t-49 -33t-59 -12q-32 0 -60 12t-49 33t-33 48.5t-12 59.5z" />
    <glyph glyph-name="afii62813" unicode="&#x642;" horiz-adv-x="1714" arabic-form="final" 
d="M1757 0h-188q0 -131 -47 -223q-41 -109 -138 -193q-163 -162 -397 -162h-352q-209 0 -376 182.5t-167 409.5v335h225v-365q0 -125 132 -234q112 -94 231 -94h301q131 0 236 100q61 47 92.5 108.5t31.5 135.5q-333 0 -415 31q-199 67 -199 323q0 162 114.5 263.5
t286.5 101.5q177 0 306 -117q141 -133 141 -375h182v-227zM1348 227q0 111 -88 195q-68 61 -154 61q-72 0 -116 -31.5t-44 -82.5q0 -88 78 -125q57 -17 324 -17zM1152 1085q0 31 12 59t33 49t49 33.5t60 12.5q31 0 59 -12.5t49 -33.5t33.5 -49t12.5 -59q0 -32 -12.5 -59.5
t-33.5 -48.5t-49 -33t-59 -12q-32 0 -60 12t-49 33t-33 48.5t-12 59.5zM803 1085q0 31 12 59t33 49t48.5 33.5t59.5 12.5q31 0 59 -12.5t49 -33.5t33.5 -49t12.5 -59q0 -32 -12.5 -59.5t-33.5 -48.5t-49 -33t-59 -12q-32 0 -59.5 12t-48.5 33t-33 48.5t-12 59.5z" />
    <glyph glyph-name="afii62811" unicode="&#x642;" horiz-adv-x="1066" arabic-form="initial" 
d="M1001 381q0 -199 -133 -297q-110 -84 -223 -84h-686v227h690q129 0 129 172q-321 0 -405 21q-191 78 -191 313q0 172 117 270.5t266 98.5q168 0 289 -113q72 -63 108.5 -147t36.5 -197zM760 612q0 121 -74 199q-57 53 -141 53q-66 0 -108 -33.5t-42 -82.5q0 -107 62 -123
q20 -13 151 -13h152zM596 1435q0 31 12 59t33 49t49 33.5t60 12.5q31 0 59 -12.5t49 -33.5t33.5 -49t12.5 -59q0 -32 -12.5 -59.5t-33.5 -48.5t-49 -33t-59 -12q-32 0 -60 12t-49 33t-33 48.5t-12 59.5zM247 1435q0 31 12 59t33 49t48.5 33.5t59.5 12.5q31 0 59 -12.5
t49 -33.5t33.5 -49t12.5 -59q0 -32 -12.5 -59.5t-33.5 -48.5t-49 -33t-59 -12q-32 0 -59.5 12t-48.5 33t-33 48.5t-12 59.5z" />
    <glyph glyph-name="afii62812" unicode="&#x642;" horiz-adv-x="1087" arabic-form="medial" 
d="M1149 0l-74 6h-61l-162 4q-94 0 -182 15l-103 36q-98 -61 -649 -61v227h338q-125 146 -125 310q0 159 110.5 267.5t299.5 108.5q176 0 284 -127q97 -120 97 -288q0 -150 -80 -271h307v-227zM717 489q0 78 -62.5 140.5t-128.5 62.5q-59 0 -118.5 -54t-59.5 -122
q0 -137 230 -240q139 105 139 213zM555 1253q0 31 12 59t33 49t49 33.5t60 12.5q31 0 59 -12.5t49 -33.5t33.5 -49t12.5 -59q0 -32 -12.5 -59.5t-33.5 -48.5t-49 -33t-59 -12q-32 0 -60 12t-49 33t-33 48.5t-12 59.5zM206 1253q0 31 12 59t33 49t48.5 33.5t59.5 12.5
q31 0 59 -12.5t49 -33.5t33.5 -49t12.5 -59q0 -32 -12.5 -59.5t-33.5 -48.5t-49 -33t-59 -12q-32 0 -59.5 12t-48.5 33t-33 48.5t-12 59.5z" />
    <glyph glyph-name="afii62816" unicode="&#x643;" horiz-adv-x="2071" arabic-form="final" 
d="M422 0q-137 0 -234 111q-90 108 -90 262v346h230v-313q0 -95 20 -121q37 -58 150 -58l864 -4h74q92 0 129 43q14 15 24 56q17 40 17 127v1017h229v-1060q0 -121 72 -160q73 -19 219 -19v-227h-72q-131 0 -194 14q-60 17 -136 78q-82 -67 -153 -82q-60 -10 -1149 -10z
M1184 951l-438 -221l-53 129l96 51q-38 34 -58 73.5t-20 88.5q0 40 16 79t48 71q65 71 162 71q24 -5 61.5 -17t85.5 -32l-65 -137q-55 43 -89 43q-12 0 -24.5 -5t-22.5 -18l2 4q-28 -37 -28 -59q0 -65 57 -65q32 0 83.5 20t119.5 57z" />
    <glyph glyph-name="afii57410" unicode="&#x643;" horiz-adv-x="1071" arabic-form="initial" 
d="M977 311q0 -112 -88 -213q-98 -98 -277 -98h-665v227h665q131 0 131 86q0 39 -43 97l-602 630l-46 241l918 330l28 -221l-670 -247l585 -649q64 -78 64 -183z" />
    <glyph glyph-name="afii62815" unicode="&#x643;" horiz-adv-x="1314" arabic-form="medial" 
d="M1337 0q-127 0 -232.5 44t-168.5 138q-33 -84 -88 -135q-62 -47 -199 -47h-684v227h659q119 0 119 86q0 41 -53 103l-571 624l-37 258l904 321l36 -229l-674 -247l635 -701q139 -155 199 -192l59 -17l96 -6v-227z" />
    <glyph glyph-name="afii62817" unicode="&#x644;" horiz-adv-x="552" arabic-form="initial" 
d="M494 352q0 -133 -68 -221q-98 -131 -297 -131h-172v227h158q92 0 131 58q24 49 24 164v1017h224v-1114z" />
    <glyph glyph-name="afii62818" unicode="&#x644;" horiz-adv-x="758" arabic-form="medial" 
d="M807 0h-70q-133 0 -193.5 15.5t-133.5 76.5q-82 -67 -154 -82q-59 -10 -299 -10v227l164 -1q92 0 129 43q14 15 25.5 54t11.5 126v1017h229v-1060q0 -121 75 -150t216 -29v-227z" />
    <glyph glyph-name="afii62822" unicode="&#x645;" horiz-adv-x="1602" arabic-form="final" 
d="M1626 0q-129 0 -211 27q-63 34 -135 139q-74 -182 -291 -182q-162 0 -282 114q-136 115 -136 314v278q-102 0 -178 -67.5t-76 -155.5v-1045h-219v1014q0 226 121 361q129 116 322 116h467q364 0 364 -534q0 -152 254 -152v-227zM1153 395q0 203 -41 240q-55 55 -317 55
v-321q0 -72 54 -114t128 -42q67 0 121.5 44t54.5 138z" />
    <glyph glyph-name="afii62820" unicode="&#x645;" horiz-adv-x="1062" arabic-form="initial" 
d="M989 442q0 -213 -96 -338q-107 -139 -299 -139q-145 0 -256 88q-125 -53 -385 -53v227q188 0 223 39q12 19 12 176q0 199 105.5 335t300.5 136q186 0 290.5 -137t104.5 -334zM795 442q0 248 -201 248q-199 0 -199 -248q0 -249 199 -249q201 0 201 249z" />
    <glyph glyph-name="afii62825" unicode="&#x646;" horiz-adv-x="1804" arabic-form="final" 
d="M654 1037q0 31 12 59t33 49t49 33.5t60 12.5q31 0 59 -12.5t49 -33.5t33 -49t12 -59q0 -32 -12 -59.5t-33 -48.5t-49 -33t-59 -12q-32 0 -60 12t-49 33t-33 48.5t-12 59.5zM1829 0q-187 0 -254 109q0 -316 -180 -521q-162 -166 -398 -166h-352q-215 0 -381 179.5
t-166 412.5v475h224v-505q0 -129 102 -232.5t266 -103.5h293q141 0 252 95t111 241v735h225v-330q0 -162 258 -162v-227z" />
    <glyph glyph-name="afii62823" unicode="&#x646;" horiz-adv-x="743" arabic-form="initial" 
d="M267 1078q0 31 12 59t33 49t49 33.5t60 12.5q31 0 59 -12.5t49 -33.5t33 -49t12 -59q0 -32 -12 -59.5t-33 -48.5t-49 -33t-59 -12q-32 0 -60 12t-49 33t-33 48.5t-12 59.5zM662 373q0 -150 -99.5 -261.5t-234.5 -111.5h-371v227h299q113 0 154 58q16 28 16 121v313h236
v-346z" />
    <glyph glyph-name="afii62824" unicode="&#x646;" horiz-adv-x="936" arabic-form="medial" 
d="M333 1090q0 31 12 59t33 49t49 33.5t60 12.5q31 0 59 -12.5t49 -33.5t33 -49t12 -59q0 -32 -12 -59.5t-33 -48.5t-49 -33t-59 -12q-32 0 -60 12t-49 33t-33 48.5t-12 59.5zM983 0l-135 4l-68 10l-53 27l-65 51q-111 -92 -220 -92h-489v227h422q112 0 149 58q17 28 17 121
v313h233v-313q0 -109 37 -142q47 -37 172 -37v-227z" />
    <glyph glyph-name="E0A7" unicode="&#x647;" horiz-adv-x="1260" arabic-form="medial" 
 />
    <glyph glyph-name="afii62828" unicode="&#x647;" horiz-adv-x="1413" arabic-form="final" 
d="M1462 0q-162 0 -219 41q-27 12 -240 205q-129 -273 -420 -273q-178 0 -307 127t-129 312q0 125 88 254q47 73 180 202l-67 78l157 156l684 -727q84 -90 127 -125q45 -23 146 -23v-227zM804 395q0 58 -41 125l-182 182q-129 -118 -166 -178.5t-37 -128.5
q0 -57 52.5 -129.5t156.5 -72.5q101 0 166 77q51 58 51 125z" />
    <glyph glyph-name="afii62829" unicode="&#x648;" horiz-adv-x="1133" arabic-form="final" 
d="M1169 0h-155q0 -227 -172 -412q-74 -75 -184.5 -120.5t-231.5 -45.5h-295l-33 226h291q168 0 276.5 106.5t108.5 245.5q-270 0 -405 72q-187 90 -187 358q0 289 140 412q88 71 270 71q260 0 364 -221q58 -141 58 -465h155v-227zM784 227v219q0 136 -77 195
q-52 45 -115 45q-88 0 -125 -45q-51 -53 -51 -199q0 -125 72.5 -170t295.5 -45z" />
    <glyph glyph-name="afii62830" unicode="&#x649;" horiz-adv-x="1636" arabic-form="final" 
d="M1673 0h-211l11 -111q0 -194 -155 -330.5t-345 -136.5h-355q-260 0 -425 199q-140 186 -140 461v407h232v-499q0 -119 84 -223q108 -119 301 -119h293q114 0 192 61q88 68 88 193q0 63 -107.5 80.5t-361.5 17.5l-20 227h919v-227z" />
    <glyph glyph-name="afii62833" unicode="&#x64a;" horiz-adv-x="1636" arabic-form="final" 
d="M788 -889q0 31 12 59t33 49t49 33.5t60 12.5q31 0 59 -12.5t49 -33.5t33.5 -49t12.5 -59q0 -32 -12.5 -59.5t-33.5 -48.5t-49 -33t-59 -12q-32 0 -60 12t-49 33t-33 48.5t-12 59.5zM439 -889q0 31 12 59t33 49t48.5 33.5t59.5 12.5q31 0 59 -12.5t49 -33.5t33.5 -49
t12.5 -59q0 -32 -12.5 -59.5t-33.5 -48.5t-49 -33t-59 -12q-32 0 -59.5 12t-48.5 33t-33 48.5t-12 59.5zM1673 0h-211l11 -111q0 -194 -155 -330.5t-345 -136.5h-355q-260 0 -425 199q-140 186 -140 461v407h232v-499q0 -119 84 -223q108 -119 301 -119h293q114 0 192 61
q88 68 88 193q0 63 -107.5 80.5t-361.5 17.5l-20 227h919v-227z" />
    <glyph glyph-name="afii62831" unicode="&#x64a;" horiz-adv-x="743" arabic-form="initial" 
d="M662 373q0 -150 -99.5 -261.5t-234.5 -111.5h-371v227h299q113 0 154 58q16 28 16 121v313h236v-346zM405 -371q0 31 12 59t33 49t49 33.5t60 12.5q31 0 59 -12.5t49 -33.5t33.5 -49t12.5 -59q0 -32 -12.5 -59.5t-33.5 -48.5t-49 -33t-59 -12q-32 0 -60 12t-49 33
t-33 48.5t-12 59.5zM56 -371q0 31 12 59t33 49t48.5 33.5t59.5 12.5q31 0 59 -12.5t49 -33.5t33.5 -49t12.5 -59q0 -32 -12.5 -59.5t-33.5 -48.5t-49 -33t-59 -12q-32 0 -59.5 12t-48.5 33t-33 48.5t-12 59.5z" />
    <glyph glyph-name="afii62832" unicode="&#x6cc;" horiz-adv-x="936" arabic-form="medial" 
d="M983 0l-135 4l-68 10l-53 27l-65 51q-111 -92 -220 -92h-489v227h422q112 0 149 58q17 28 17 121v313h233v-313q0 -109 37 -142q47 -37 172 -37v-227zM480 -367q0 31 12 59t33 49t49 33.5t60 12.5q31 0 59 -12.5t49 -33.5t33.5 -49t12.5 -59q0 -32 -12.5 -59.5
t-33.5 -48.5t-49 -33t-59 -12q-32 0 -60 12t-49 33t-33 48.5t-12 59.5zM131 -367q0 31 12 59t33 49t48.5 33.5t59.5 12.5q31 0 59 -12.5t49 -33.5t33.5 -49t12.5 -59q0 -32 -12.5 -59.5t-33.5 -48.5t-49 -33t-59 -12q-32 0 -59.5 12t-48.5 33t-33 48.5t-12 59.5z" />
    <glyph glyph-name="uniFBA4" unicode="&#x6c0;" horiz-adv-x="1028" arabic-form="isolated" 
d="M961 395q0 -168 -130.5 -295t-306.5 -127q-180 0 -306 130t-126 309q0 125 76 254l72 92l112 110l-67 78l155 156l414 -432q107 -133 107 -275zM733 395q0 68 -33 113l-186 194q-102 -100 -166 -182l-24 -47l-17 -78q0 -47 51 -125q68 -77 166 -77q101 0 162 71
q47 58 47 131zM731 1417l-458 -166l-31 101l104 39q-38 33 -50.5 74t-5.5 81.5t31 78t59 64t79 38.5t91 2q28 -5 51.5 -19.5t49.5 -37.5l-66 -96q-25 25 -43.5 30t-34.5 7q-14 1 -30.5 -2t-30.5 -11.5t-24.5 -21.5t-12.5 -31q-2 -16 3 -29t14.5 -22.5t23 -15.5t28.5 -7
q64 -7 208 50z" />
    <glyph glyph-name="uniFBA5" unicode="&#x6c0;" horiz-adv-x="1413" arabic-form="final" 
d="M1462 0q-162 0 -219 41q-27 12 -240 205q-129 -273 -420 -273q-178 0 -307 127t-129 312q0 125 88 254q47 73 180 202l-67 78l157 156l684 -727q84 -90 127 -125q45 -23 146 -23v-227zM804 395q0 58 -41 125l-182 182q-129 -118 -166 -178.5t-37 -128.5
q0 -57 52.5 -129.5t156.5 -72.5q101 0 166 77q51 58 51 125zM790 1379l-458 -166l-31 101l104 39q-38 33 -50.5 74t-5.5 81.5t31 78t59 64t79 38.5t91 2q28 -5 51.5 -19.5t49.5 -37.5l-66 -96q-25 25 -43.5 30t-34.5 7q-14 1 -30.5 -2t-30.5 -11.5t-24.5 -21.5t-12.5 -31
q-2 -16 3 -29t14.5 -22.5t23 -15.5t28.5 -7q64 -7 208 50z" />
    <glyph glyph-name="uniFBFE" unicode="&#x6cc;" horiz-adv-x="743" arabic-form="initial" 
d="M662 373q0 -150 -99.5 -261.5t-234.5 -111.5h-371v227h299q113 0 154 58q16 28 16 121v313h236v-346zM391 -372q0 31 12 59t33 49t49 33.5t60 12.5q31 0 59 -12.5t49 -33.5t33.5 -49t12.5 -59q0 -32 -12.5 -59.5t-33.5 -48.5t-49 -33t-59 -12q-32 0 -60 12t-49 33
t-33 48.5t-12 59.5zM42 -372q0 31 12 59t33 49t48.5 33.5t59.5 12.5q31 0 59 -12.5t49 -33.5t33.5 -49t12.5 -59q0 -32 -12.5 -59.5t-33.5 -48.5t-49 -33t-59 -12q-32 0 -59.5 12t-48.5 33t-33 48.5t-12 59.5z" />
    <glyph glyph-name="uniFB68" unicode="&#x679;" horiz-adv-x="330" arabic-form="initial" 
 />
    <glyph glyph-name="uniFB69" unicode="&#x679;" horiz-adv-x="522" arabic-form="medial" 
 />
    <glyph glyph-name="uniFBA6" unicode="&#x6c1;" horiz-adv-x="586" arabic-form="isolated" 
d="M973 395q0 -168 -130.5 -295t-306.5 -127q-180 0 -306 130t-126 309q0 125 76 254l72 92l112 110l-67 78l155 156l414 -432q107 -133 107 -275zM745 395q0 68 -33 113l-186 194q-102 -100 -166 -182l-24 -47l-17 -78q0 -47 51 -125q68 -77 166 -77q101 0 162 71
q47 58 47 131z" />
    <glyph glyph-name="uniFB51" unicode="&#x671;" horiz-adv-x="655" arabic-form="final" 
d="M690 0q-299 0 -409 111q-78 86 -78 241v1082h229v-985q0 -154 41 -188t217 -34v-227zM288 1736q39 29 73.5 35t61 -7.5t42.5 -45.5t17 -78l-2 -99h-399v73h68zM249 1614h159v37q-2 35 -24.5 45.5t-60.5 -17.5z" />
    <glyph glyph-name="uni0675.fina" unicode="&#x675;" horiz-adv-x="655" 
d="M690 0q-299 0 -409 111q-78 86 -78 241v1082h229v-985q0 -154 41 -188t217 -34v-227zM586 1710l-458 -166l-31 101l104 39q-38 33 -50.5 74t-5.5 81.5t31 78t59 64t79 38.5t91 2q28 -5 51.5 -19.5t49.5 -37.5l-66 -96q-25 25 -43.5 30t-34.5 7q-14 1 -30.5 -2
t-30.5 -11.5t-24.5 -21.5t-12.5 -31q-2 -16 3 -29t14.5 -22.5t23 -15.5t28.5 -7q64 -7 208 50z" />
    <glyph glyph-name="uni0676.fina" unicode="&#x676;" horiz-adv-x="1133" 
d="M1169 0h-155q0 -227 -172 -412q-74 -75 -184.5 -120.5t-231.5 -45.5h-295l-33 226h291q168 0 276.5 106.5t108.5 245.5q-270 0 -405 72q-187 90 -187 358q0 289 140 412q88 71 270 71q260 0 364 -221q58 -141 58 -465h155v-227zM784 227v219q0 136 -77 195
q-52 45 -115 45q-88 0 -125 -45q-51 -53 -51 -199q0 -125 72.5 -170t295.5 -45zM842 1258l-458 -166l-31 101l104 39q-38 33 -50.5 74t-5.5 81.5t31 78t59 64t79 38.5t91 2q28 -5 51.5 -19.5t49.5 -37.5l-66 -96q-25 25 -43.5 30t-34.5 7q-14 1 -30.5 -2t-30.5 -11.5
t-24.5 -21.5t-12.5 -31q-2 -16 3 -29t14.5 -22.5t23 -15.5t28.5 -7q64 -7 208 50z" />
    <glyph glyph-name="uni0678.fina" unicode="&#x678;" horiz-adv-x="1636" 
d="M1673 0h-211l11 -111q0 -194 -155 -330.5t-345 -136.5h-355q-260 0 -425 199q-140 186 -140 461v407h232v-499q0 -119 84 -223q108 -119 301 -119h293q114 0 192 61q88 68 88 193q0 63 -107.5 80.5t-361.5 17.5l-20 227h919v-227zM774 914l-458 -166l-31 101l104 39
q-38 33 -50.5 74t-5.5 81.5t31 78t59 64t79 38.5t91 2q28 -5 51.5 -19.5t49.5 -37.5l-66 -96q-25 25 -43.5 30t-34.5 7q-14 1 -30.5 -2t-30.5 -11.5t-24.5 -21.5t-12.5 -31q-2 -16 3 -29t14.5 -22.5t23 -15.5t28.5 -7q64 -7 208 50z" />
    <glyph glyph-name="uniFB54" unicode="&#x67b;" horiz-adv-x="305" arabic-form="initial" 
 />
    <glyph glyph-name="uniFB55" unicode="&#x67b;" horiz-adv-x="515" arabic-form="medial" 
 />
    <glyph glyph-name="afii62760" unicode="&#x627;" horiz-adv-x="655" arabic-form="final" 
d="M690 0q-299 0 -409 111q-78 86 -78 241v1082h229v-985q0 -154 41 -188t217 -34v-227z" />
    <glyph glyph-name="afii57415" unicode="&#x627;" horiz-adv-x="568" arabic-form="isolated" 
d="M477 0h-227v1466h227v-1466z" />
    <glyph glyph-name="afii62821" unicode="&#x645;" horiz-adv-x="1149" arabic-form="medial" 
d="M1180 0q-123 0 -183 27q-47 24 -98 104q-102 -166 -315 -166q-68 0 -172 55q-84 52 -127 111q-25 -131 -346 -131v227q190 0 223 39q16 19 16 176q0 199 103.5 335t302.5 136q184 0 291.5 -137t107.5 -334q0 -139 28.5 -177t168.5 -38v-227zM778 442q0 248 -196 248
q-201 0 -201 -248q0 -249 201 -249q196 0 196 249z" />
    <glyph glyph-name="afii62819" unicode="&#x644;" horiz-adv-x="1788" arabic-form="final" 
d="M1839 0q-186 0 -260 109q0 -316 -180 -521q-162 -166 -400 -166h-350q-217 0 -384 179.5t-167 412.5v475h226v-505q0 -129 103 -232.5t265 -103.5h291q145 0 255 95t110 241v1482h227v-1077q0 -162 264 -162v-227z" />
    <glyph glyph-name="uniFC63" unicode="&#xfc63;" arabic-form="isolated" 
d="M-252 278h96v-136q3 -31 53.5 -34t50.5 34v136h96v-136q0 -21 16 -31t51 -8t35 32v143h100v-131q-4 -66 -26 -89q-42 -48 -107 -46q-66 0 -113 46q-31 -51 -123 -51q-61 0 -95 37t-34 103v131zM55 371h-104v352h104v-352z" />
    <glyph glyph-name="uniFC5D" unicode="&#xfc5d;" horiz-adv-x="1636" arabic-form="isolated" 
d="M1561 -74q0 -153 -43 -239q-25 -99 -129 -197q-162 -156 -392 -156h-352q-223 0 -383 177.5t-160 414.5v469h215v-499q0 -150 132 -261q108 -77 241 -77h297q121 0 230 80q120 102 120 231q0 104 -86 131t-440 27v389q0 168 119 288.5t282 120.5h279l10 -213h-280
q-115 0 -170 -112q-27 -90 -27 -260q307 0 416 -54q121 -65 121 -260zM575 735h-104v352h104v-352z" />
    <glyph glyph-name="uniFBE5" unicode="&#x6d0;" horiz-adv-x="1226" arabic-form="final" 
d="M1673 0h-211l11 -111q0 -194 -155 -330.5t-345 -136.5h-355q-260 0 -425 199q-140 186 -140 461v407h232v-499q0 -119 84 -223q108 -119 301 -119h293q114 0 192 61q88 68 88 193q0 63 -107.5 80.5t-361.5 17.5l-20 227h919v-227z" />
    <glyph glyph-name="uniFE7B" unicode="&#xfe7b;" horiz-adv-x="594" arabic-form="medial" 
d="M20 -427l545 141v-98l-545 -139v96zM629 0h-656v227h656v-227z" />
    <glyph glyph-name="uniFCF2" unicode="&#xfcf2;" horiz-adv-x="594" arabic-form="medial" 
d="M38 766h96v-136q3 -31 53.5 -34t50.5 34v136h96v-136q0 -21 16 -31t51 -8t35 32v143h100v-131q-4 -66 -26 -89q-42 -48 -107 -46q-66 0 -113 46q-31 -51 -123 -51q-61 0 -95 37t-34 103v131zM-7 962l545 141v-98l-545 -139v96zM629 0h-656v227h656v-227z" />
    <glyph glyph-name="uniFCF3" unicode="&#xfcf3;" horiz-adv-x="594" arabic-form="medial" 
d="M39 738h96v-136q3 -31 53.5 -34t50.5 34v136h96v-136q0 -21 16 -31t51 -8t35 32v143h100v-131q-4 -66 -26 -89q-42 -48 -107 -46q-66 0 -113 46q-31 -51 -123 -51q-61 0 -95 37t-34 103v131zM565 1286q1 -132 -98 -198l-408 -231l-60 102l294 165q-92 48 -94 146
q-2 70 41 126t121 71q81 8 143 -45t61 -136zM309 1278q0 -31 21 -52t52 -21q30 0 51.5 21t21.5 52q0 30 -21.5 51.5t-51.5 21.5q-31 0 -52 -21.5t-21 -51.5zM629 0h-656v227h656v-227z" />
    <glyph glyph-name="uniFE71" unicode="&#xfe71;" horiz-adv-x="594" arabic-form="medial" 
d="M32 747l545 141v-98l-545 -139v96zM32 567l545 141v-98l-545 -139v96zM629 0h-656v227h656v-227z" />
    <glyph glyph-name="uniFE77" unicode="&#xfe77;" horiz-adv-x="594" arabic-form="medial" 
d="M16 621l545 141v-98l-545 -139v96zM629 0h-656v227h656v-227z" />
    <glyph glyph-name="uniFE79" unicode="&#xfe79;" horiz-adv-x="594" arabic-form="medial" 
d="M573 965q1 -132 -98 -198l-408 -231l-60 102l294 165q-92 48 -94 146q-2 70 41 126t121 71q81 8 143 -45t61 -136zM317 957q0 -31 21 -52t52 -21q30 0 51.5 21t21.5 52q0 30 -21.5 51.5t-51.5 21.5q-31 0 -52 -21.5t-21 -51.5zM629 0h-656v227h656v-227z" />
    <glyph glyph-name="uniFE7D" unicode="&#xfe7d;" horiz-adv-x="594" arabic-form="medial" 
d="M76 886h96v-136q3 -31 53.5 -34t50.5 34v136h96v-136q0 -21 16 -31t51 -8t35 32v143h100v-131q-4 -66 -26 -89q-42 -48 -107 -46q-66 0 -113 46q-31 -51 -123 -51q-61 0 -95 37t-34 103v131zM629 0h-656v227h656v-227z" />
    <glyph glyph-name="uniFE7F" unicode="&#xfe7f;" horiz-adv-x="594" arabic-form="medial" 
d="M83 780q0 51 17.5 95.5t48 77t72.5 52t91 19.5t91 -19.5t73 -52t48.5 -77t17.5 -95.5t-17.5 -95t-48.5 -75.5t-73 -50t-91 -18.5t-91 18.5t-72.5 50t-48 75.5t-17.5 95zM191 776q0 -54 37 -92t88 -38q50 0 87 38t37 92q0 56 -37 95.5t-87 39.5q-51 0 -88 -39.5t-37 -95.5
zM629 0h-656v227h656v-227z" />
    <glyph glyph-name="uniFCF4" unicode="&#xfcf4;" horiz-adv-x="594" arabic-form="medial" 
d="M48 1026h96v-136q3 -31 53.5 -34t50.5 34v136h96v-136q0 -21 16 -31t51 -8t35 32v143h100v-131q-4 -66 -26 -89q-42 -48 -107 -46q-66 0 -113 46q-31 -51 -123 -51q-61 0 -95 37t-34 103v131zM14 490l545 141v-98l-545 -139v96zM629 0h-656v227h656v-227z" />
    <glyph glyph-name="uni06BA" unicode="&#x6ba;" arabic-form="isolated" 
 />
    <glyph glyph-name="uniFB9F" unicode="&#x6ba;" arabic-form="final" 
 />
    <glyph glyph-name="uniFBA8" unicode="&#x6c1;" arabic-form="initial" 
 />
    <glyph glyph-name="afii62827" unicode="&#x6be;" horiz-adv-x="1014" arabic-form="final" 
d="M1049 0h-175q-104 0 -163.5 -57.5t-59.5 -124.5l4 -35l54 -236l-222 -67l-61 297l-4 47q0 127 110 250q-83 -74 -210 -74h-396v227h324q102 0 166 60q24 30 43 129l41 250l229 -41l-57 -281q-2 -47 -9.5 -70.5t-31.5 -70.5q-19 -37 -53 -82q112 106 227 106h244v-227z
" />
    <glyph glyph-name="uniFC09" unicode="&#xfc09;" horiz-adv-x="1647" arabic-form="isolated" 
 />
    <glyph glyph-name="uniFC0F" unicode="&#xfc0f;" horiz-adv-x="1669" arabic-form="isolated" 
 />
    <glyph glyph-name="uniFC31" unicode="&#xfc31;" horiz-adv-x="1838" arabic-form="isolated" 
 />
    <glyph glyph-name="uniFC4F" unicode="&#xfc4f;" horiz-adv-x="1661" arabic-form="isolated" 
 />
    <glyph glyph-name="uniFC59" unicode="&#xfc59;" horiz-adv-x="1823" arabic-form="isolated" 
 />
    <glyph glyph-name="uniFC6E" unicode="&#xfc6e;" horiz-adv-x="1746" arabic-form="final" 
 />
    <glyph glyph-name="uniFC74" unicode="&#xfc74;" horiz-adv-x="1846" arabic-form="final" 
 />
    <glyph glyph-name="uniFC8E" unicode="&#xfc8e;" horiz-adv-x="1809" arabic-form="final" 
 />
    <glyph glyph-name="uniFC95" unicode="&#xfc95;" horiz-adv-x="1805" arabic-form="final" 
 />
    <glyph glyph-name="uniFC9C" unicode="&#xfc9c;" horiz-adv-x="1766" arabic-form="initial" 
 />
    <glyph glyph-name=".notdef" horiz-adv-x="2048" 
 />
    <glyph glyph-name=".null" 
 />
    <glyph glyph-name="nonmarkingreturn" horiz-adv-x="640" 
 />
    <glyph glyph-name="space" unicode=" " horiz-adv-x="415" 
 />
    <glyph glyph-name="quotedbl" unicode="&#x22;" horiz-adv-x="1022" 
d="M231 1393q0 81 84 81q42 -2 62.5 -26t20.5 -55q0 -80 -21 -227.5t-21 -220.5h-86q0 73 -19.5 220.5t-19.5 227.5zM531 1393q0 81 84 81q42 -2 62.5 -26t20.5 -55q0 -80 -21 -227.5t-21 -220.5h-86q0 73 -19.5 220.5t-19.5 227.5z" />
    <glyph glyph-name="quotesingle" unicode="'" horiz-adv-x="586" 
d="M231 1393q0 81 84 81q42 -2 62.5 -26t20.5 -55q0 -80 -21 -227.5t-21 -220.5h-86q0 73 -19.5 220.5t-19.5 227.5z" />
    <glyph glyph-name="asterisk" unicode="*" horiz-adv-x="1126" 
d="M568 347l6 340l-219 -220h-105l277 279h-324l20 93h324l-270 265h93l209 -205l6 300l119 40l-5 -327l206 192h108l-283 -265h335l-22 -93h-314l273 -279h-92l-214 220l-8 -301z" />
    <glyph glyph-name="plus" unicode="+" horiz-adv-x="1253" 
d="M546 181v397h-397v167h397v396h167v-396h396v-167h-396v-397h-167z" />
    <glyph glyph-name="hyphen" unicode="-" horiz-adv-x="1255" 
d="M149 578v167h960v-167h-960z" />
    <glyph glyph-name="period" unicode="." horiz-adv-x="681" 
d="M211 168q0 70 49 120t117 50q69 0 119.5 -50t50.5 -120q0 -68 -50.5 -117t-119.5 -49q-68 0 -117 49t-49 117z" />
    <glyph glyph-name="slash" unicode="/" horiz-adv-x="1032" 
d="M942 1185l-657 -1190h-177l649 1190h185z" />
    <glyph glyph-name="less" unicode="&#x3c;" horiz-adv-x="1117" 
d="M955 58l-805 386v90l805 384v-134l-624 -295l624 -297v-134z" />
    <glyph glyph-name="equal" unicode="=" horiz-adv-x="1157" 
d="M82 866h985v-168h-985v168zM82 560h985v-168h-985v168z" />
    <glyph glyph-name="greater" unicode="&#x3e;" horiz-adv-x="1117" 
d="M966 444l-806 -386v134l626 297l-626 295v134l806 -384v-90z" />
    <glyph glyph-name="bracketleft" unicode="[" horiz-adv-x="455" 
d="M111 1173h319v-119h-175v-1260h175v-120h-319v1499z" />
    <glyph glyph-name="bracketright" unicode="]" horiz-adv-x="455" 
d="M31 -326v120h174v1260h-174v119h318v-1499h-318z" />
    <glyph glyph-name="grave" unicode="`" horiz-adv-x="212" 
 />
    <glyph glyph-name="braceleft" unicode="{" horiz-adv-x="547" 
d="M46 490q60 1 100 32.5t51 87.5q6 28 9.5 75t3.5 113q1 135 6 177q5 49 17 84.5t30.5 60.5t44 40.5t58.5 24.5q30 8 98 8h46v-127h-27q-40 0 -68 -7t-41 -22q-28 -28 -28 -135q0 -105 -2.5 -170.5t-5.5 -92.5q-15 -84 -50 -133q-17 -23 -44 -43t-66 -39q88 -35 128 -113
q40 -74 40 -247q0 -156 3 -186q3 -27 10 -45.5t22 -30t39.5 -16.5t62.5 -5h27v-125h-46q-40 0 -68 2.5t-46 8.5q-51 20 -84.5 61t-44.5 105q-5 31 -7.5 82t-3.5 124q0 73 -3.5 122.5t-9.5 76.5q-12 54 -51 87q-38 31 -100 34v131v0z" />
    <glyph glyph-name="bar" unicode="|" horiz-adv-x="426" 
d="M150 1193h125v-1537h-125v1537z" />
    <glyph glyph-name="asciitilde" unicode="~" horiz-adv-x="746" 
d="M111 252q50 196 187 196q44 0 139 -55l64 -37q79 -45 120 -45q65 0 113 111h36q-56 -188 -190 -188q-54 0 -136 48l-63 36q-90 52 -120 52q-67 0 -115 -118h-35z" />
    <glyph glyph-name="agrave" unicode="&#xe0;" horiz-adv-x="1075" 
d="M741 331q-21 -65 -50.5 -118t-64.5 -99q-107 -133 -226 -133q-192 0 -241 233q-26 120 -2 237t95 232q73 118 181 177t251 59q28 0 62 -0.5t69.5 -2.5t70.5 -4t66 -4l-6 -262v1l4 -393q2 -45 4.5 -74.5t3.5 -40.5q3 -25 27 -25q68 0 229 232l4 -167q-145 -198 -293 -198
q-140 0 -172 145q-4 20 -6 56t-2 82zM737 758q-49 17 -90 25.5t-86 8.5q-64 0 -107.5 -42.5t-66.5 -124.5q-25 -103 -30 -200t11 -177q20 -102 69 -102q56 0 152 134q48 72 85 150t65 169z" />
    <glyph glyph-name="ccedilla" unicode="&#xe7;" horiz-adv-x="805" 
 />
    <glyph glyph-name="eacute" unicode="&#xe9;" horiz-adv-x="1078" 
 />
    <glyph glyph-name="egrave" unicode="&#xe8;" horiz-adv-x="1078" 
 />
    <glyph glyph-name="ecircumflex" unicode="&#xea;" horiz-adv-x="1078" 
 />
    <glyph glyph-name="edieresis" unicode="&#xeb;" horiz-adv-x="1078" 
 />
    <glyph glyph-name="ocircumflex.001" horiz-adv-x="1112" 
d="M416 -19q-115 0 -211 89q-95 90 -120 218q-53 240 85 438q137 202 352 202q121 0 220 -86q95 -89 122 -216q26 -127 5 -237.5t-88 -209.5q-70 -100 -161.5 -149t-203.5 -49zM483 98q53 0 90.5 35t63.5 103q28 74 31.5 157.5t-16.5 180.5q-50 239 -186 239
q-101 0 -153 -143q-29 -75 -32 -159.5t17 -178.5q26 -119 72 -176.5t113 -57.5z" />
    <glyph glyph-name="ugrave" unicode="&#xf9;" horiz-adv-x="1142" 
 />
    <glyph glyph-name="ucircumflex" unicode="&#xfb;" horiz-adv-x="1142" 
 />
    <glyph glyph-name="udieresis" unicode="&#xfc;" horiz-adv-x="1142" 
 />
    <glyph glyph-name="dagger" unicode="&#x2020;" horiz-adv-x="932" 
d="M347 -231l220 853l-319 -30l49 108l279 -32l31 398l148 27l-134 -425l320 32l-46 -108l-283 30l-116 -835z" />
    <glyph glyph-name="degree" unicode="&#xb0;" horiz-adv-x="409" 
d="M395 844q-51 0 -87.5 36t-36.5 88q0 53 36.5 89t87.5 36q52 0 88 -36t36 -89q0 -52 -36 -88t-88 -36zM395 888q32 0 55.5 24t23.5 56t-23.5 56t-55.5 24t-56 -24t-24 -56t24 -56t56 -24z" />
    <glyph glyph-name="bullet" unicode="&#x2022;" horiz-adv-x="931" 
d="M817 662q0 -145 -103.5 -248t-248.5 -103t-248 103t-103 248t103 248t248 103t248.5 -103t103.5 -248z" />
    <glyph glyph-name="registered" unicode="&#xae;" horiz-adv-x="897" 
d="M580 445q-132 0 -225.5 93.5t-93.5 225.5t93.5 226t225.5 94q134 0 227 -94t93 -226t-93.5 -225.5t-226.5 -93.5zM580 484q115 0 197.5 83t82.5 197t-82.5 197t-197.5 83q-114 0 -196.5 -83t-82.5 -197t82.5 -197t196.5 -83zM529 737l-28 -141h-107l9 43h53l55 276h-53
l8 44h132q153 0 153 -84q0 -75 -101 -125l35 -111h62l-9 -43h-97l-50 141h-62zM538 782h36q123 0 123 84q0 49 -90 49h-43z" />
    <glyph glyph-name="copyright" unicode="&#xa9;" horiz-adv-x="1244" 
d="M725 -27q-230 0 -394.5 164t-164.5 396t164.5 396t394.5 164q233 0 397 -164t164 -396t-164 -396t-397 -164zM725 18q214 0 365 151t151 364t-151 364t-365 151q-212 0 -363 -151t-151 -364t151 -364t363 -151zM890 246q-105 -33 -186 -33q-124 0 -196 66.5t-72 182.5
q0 163 105 272.5t264 109.5q91 0 198 -30l-36 -139l-52 9l8 82q-69 32 -131 32q-104 0 -176 -98t-72 -238q0 -191 178 -191q101 0 180 36z" />
    <glyph glyph-name="trademark" unicode="&#x2122;" horiz-adv-x="1333" 
d="M440 1021h-133l-19 -98h-63l29 143h497l-28 -143h-62l18 98h-133l-90 -452h98l-9 -45h-302l10 45h97zM1011 569l-69 387l-85 -432h-169l9 45h97l90 452h-97l9 45h240l56 -319l173 319h216l-8 -45h-98l-90 -452h98l-10 -45h-195l92 461l-229 -416h-30z" />
    <glyph glyph-name="acute" unicode="&#xb4;" horiz-adv-x="256" 
 />
    <glyph glyph-name="dieresis" unicode="&#xa8;" horiz-adv-x="862" 
 />
    <glyph glyph-name="pi1" horiz-adv-x="1154" 
 />
    <glyph glyph-name="logicalnot" unicode="&#xac;" horiz-adv-x="932" 
d="M177 510l16 80h782l-69 -342h-92l52 262h-689z" />
    <glyph glyph-name="florin" unicode="&#x192;" horiz-adv-x="679" 
d="M158 -231l52 213l76 382h-178l9 45h177l4 18q32 159 165 265.5t298 106.5q57 0 99 -15l-96 -106q-52 51 -121 51q-143 0 -186 -217l-21 -103h187l-9 -45h-187l-114 -577z" />
    <glyph glyph-name="ellipsis" unicode="&#x2026;" horiz-adv-x="1827" 
d="M758 113q0 31 51.5 132.5t66.5 109.5q31 14 88.5 -47.5t61.5 -96.5q0 -45 -48.5 -131.5t-69.5 -86.5q-9 0 -57 33.5t-73 52.5q-20 17 -20 34zM1308 113q0 31 51 132.5t67 109.5q31 14 88.5 -47.5t60.5 -96.5q0 -45 -48 -131.5t-69 -86.5q-9 0 -57 33.5t-73 52.5
q-20 17 -20 34zM211 113q0 31 51 132.5t67 109.5q31 14 88.5 -47.5t60.5 -96.5q0 -45 -48 -131.5t-69 -86.5q-9 0 -57 33.5t-73 52.5q-20 17 -20 34z" />
    <glyph glyph-name="endash" unicode="&#x2013;" horiz-adv-x="434" 
d="M434 154h-434v80h434v-80z" />
    <glyph glyph-name="emdash" unicode="&#x2014;" horiz-adv-x="1862" 
d="M1866 572h-1870v160h1870v-160z" />
    <glyph glyph-name="quotedblleft" unicode="&#x201c;" horiz-adv-x="797" 
d="M418 1104q4 92 65.5 181.5t137.5 125.5l43 -84q-21 -12 -51.5 -45.5t-47.5 -85.5q92 -41 90 -116q0 -23 -9 -44t-25 -37t-36.5 -25t-43.5 -9q-29 0 -51.5 12.5t-38.5 32t-24.5 44.5t-8.5 50zM111 1104q4 92 65.5 181.5t136.5 125.5l43 -84q-20 -12 -51 -45.5t-47 -85.5
q92 -41 90 -116q0 -23 -9.5 -44t-25 -37t-36.5 -25t-44 -9q-28 0 -50.5 12.5t-38.5 32t-24.5 44.5t-8.5 50z" />
    <glyph glyph-name="quotedblright" unicode="&#x201d;" horiz-adv-x="750" 
d="M356 1276q-2 -92 -63.5 -181t-138.5 -126l-43 82q22 12 53 46t45 87q-92 39 -88 117q0 23 9 43.5t24 35.5t35.5 24t43.5 9q29 0 52 -12t38.5 -31t24 -44t8.5 -50zM664 1276q-2 -92 -63.5 -181t-139.5 -126l-43 82q22 12 53 46t45 87q-92 39 -88 117q0 23 9 43.5
t24.5 35.5t36 24t43.5 9q29 0 52 -12t38.5 -31t24 -44t8.5 -50z" />
    <glyph glyph-name="divide" unicode="&#xf7;" horiz-adv-x="1288" 
d="M738 847h-181v207h181v-207zM1091 514h-887v122h887v-122zM738 96h-181v207h181v-207z" />
    <glyph glyph-name="lozenge" unicode="&#x25ca;" horiz-adv-x="1118" 
d="M1003 699l-443 -502l-443 502l443 503zM848 699l-288 337l-289 -337l289 -335z" />
    <glyph glyph-name="fraction" unicode="&#x2044;" horiz-adv-x="742" 
d="M740 1101l-639 -1183h-110l638 1183h111z" />
    <glyph glyph-name="guilsinglleft" unicode="&#x2039;" horiz-adv-x="1117" 
d="M955 58l-805 386v90l805 384v-134l-624 -295l624 -297v-134z" />
    <glyph glyph-name="fi" unicode="&#xf001;" horiz-adv-x="1092" 
 />
    <glyph glyph-name="fl" unicode="&#xf002;" horiz-adv-x="1086" 
 />
    <glyph glyph-name="daggerdbl" unicode="&#x2021;" horiz-adv-x="932" 
d="M349 -231l132 416l-320 -31l50 107l279 -32l77 387l-320 -30l50 107l278 -32l33 405l150 27l-138 -432l320 32l-51 -107l-278 30l-76 -387l320 32l-51 -107l-279 31l-26 -398z" />
    <glyph glyph-name="middot.001" unicode="&#x2219;" horiz-adv-x="620" 
d="M429 516h-239v273h239v-273z" />
    <glyph glyph-name="quotesinglbase" unicode="&#x201a;" horiz-adv-x="418" 
d="M103 128l144 103l106 -141q-8 -146 -90.5 -224.5t-226.5 -78.5l40 45q113 10 135 150z" />
    <glyph glyph-name="quotedblbase" unicode="&#x201e;" horiz-adv-x="684" 
d="M91 92l113 86l88 -114q-22 -277 -261 -277l29 45q106 20 119 152zM401 92l115 86l86 -114q-21 -277 -261 -277l31 45q104 20 118 152z" />
    <glyph glyph-name="perthousand" unicode="&#x2030;" horiz-adv-x="1571" 
d="M385 533q-81 0 -130.5 51.5t-49.5 137.5q0 143 81.5 243.5t196.5 100.5q84 0 134.5 -51.5t50.5 -137.5q0 -144 -82.5 -244t-200.5 -100zM311 715q0 -137 87 -137q65 0 119 93.5t54 209.5q0 141 -88 141q-67 0 -119.5 -94t-52.5 -213zM850 0q-81 0 -130.5 51.5
t-49.5 137.5q0 142 81 243t196 101q84 0 134.5 -51.5t50.5 -137.5q0 -144 -82.5 -244t-199.5 -100zM776 182q0 -138 86 -138q67 0 120 94t53 210q0 142 -87 142q-68 0 -120 -94.5t-52 -213.5zM131 -27l980 1120h95l-981 -1120h-94zM1376 0q-82 0 -131.5 51.5t-49.5 137.5
q0 142 81.5 243t196.5 101q84 0 134.5 -51.5t50.5 -137.5q0 -144 -82.5 -244t-199.5 -100zM1301 183q0 -139 88 -139q64 0 118 94t54 209q0 143 -88 143q-67 0 -119.5 -94.5t-52.5 -212.5z" />
    <glyph glyph-name="dotlessi" unicode="&#xf031;" horiz-adv-x="1156" 
 />
    <glyph glyph-name="circumflex" unicode="&#x2c6;" horiz-adv-x="862" 
 />
    <glyph glyph-name="cedilla" unicode="&#xb8;" horiz-adv-x="862" 
 />
    <glyph glyph-name="multiply" unicode="&#xd7;" horiz-adv-x="1159" 
d="M231 380l281 281l-281 281l118 118l281 -281l280 280l118 -118l-280 -280l280 -280l-118 -118l-280 280l-281 -281z" />
    <glyph glyph-name="macron" unicode="&#xaf;" horiz-adv-x="1118" 
d="M1134 1259h-1150v130h1150v-130z" />
    <glyph glyph-name="periodcentered" unicode="&#xb7;" horiz-adv-x="724" 
d="M482 832h-239v285h239v-285z" />
    <glyph glyph-name="H22073" unicode="&#x25a1;" horiz-adv-x="1237" 
d="M146 944h944v-944h-944v944zM222 868v-792h792v792h-792z" />
    <glyph glyph-name="H18543" unicode="&#x25aa;" horiz-adv-x="1089" 
d="M886 894v-694h-694v694h694z" />
    <glyph glyph-name="H18551" unicode="&#x25ab;" horiz-adv-x="1089" 
d="M888 930v-695h-695v695h695zM774 816h-467v-467h467v467z" />
    <glyph glyph-name="H18533" unicode="&#x25cf;" horiz-adv-x="1339" 
d="M204 775q0 201 141 342t340 141q200 0 341 -141t141 -342q0 -198 -141 -339t-341 -141q-199 0 -340 141t-141 339z" />
    <glyph glyph-name="openbullet" unicode="&#x25e6;" horiz-adv-x="1089" 
d="M544 1392q156 0 266.5 -110.5t110.5 -266.5t-110.5 -266t-266.5 -110t-266 110t-110 266t109.5 266.5t266.5 110.5zM544 1278q-109 0 -185.5 -77.5t-76.5 -185.5q0 -109 77 -185.5t185 -76.5t185.5 76.5t77.5 185.5q0 108 -76.5 185.5t-186.5 77.5z" />
    <glyph glyph-name="uniFFFC" unicode="&#xfffc;" horiz-adv-x="2048" 
d="M2048 1150h-100v223h-223v100h323v-323zM1473 1373h-323v100h323v-100zM2048 575h-100v323h100v-323zM1782 611q0 -241 -211 -241q-86 0 -138 45l73 79q25 -26 65 -26q95 0 95 138v484h116v-479zM898 1373h-323v100h323v-100zM2048 0h-323v100h223v223h100v-323z
M1423 591q0 -209 -274 -209h-240v708h235q249 0 249 -186q0 -91 -89 -145q119 -46 119 -168zM323 1373h-223v-223h-100v323h323v-100zM1473 0h-323v100h323v-100zM854 735q0 -173 -82 -269t-235 -96t-233.5 96t-80.5 269q0 175 80.5 271t233.5 96t235 -96t82 -271zM100 575
h-100v323h100v-323zM898 0h-323v100h323v-100zM323 0h-323v323h100v-223h223v-100zM1277 893q0 99 -163 99h-89v-194h101q151 0 151 95zM1307 591q0 109 -171 109h-111v-220h124q158 0 158 111zM738 735q0 269 -201 269q-198 0 -198 -269q0 -267 198 -267q201 0 201 267z
" />
    <glyph glyph-name="hookabovecomb" 
 />
    <glyph glyph-name="dotbelowcomb" 
 />
    <glyph glyph-name="gravecomb" unicode="&#x300;" horiz-adv-x="918" 
 />
    <glyph glyph-name="acutecomb" unicode="&#x301;" 
 />
    <glyph glyph-name="doublevav" unicode="&#x5f0;" horiz-adv-x="1122" 
 />
    <glyph glyph-name="vavyod" unicode="&#x5f1;" horiz-adv-x="1122" 
 />
    <glyph glyph-name="doubleyod" unicode="&#x5f2;" horiz-adv-x="1122" 
 />
    <glyph glyph-name="geresh" unicode="&#x5f3;" horiz-adv-x="432" 
 />
    <glyph glyph-name="gershayim" unicode="&#x5f4;" horiz-adv-x="822" 
 />
    <glyph glyph-name="altayin" unicode="&#xfb20;" horiz-adv-x="1328" 
 />
    <glyph glyph-name="alefpatah" unicode="&#xfb2e;" horiz-adv-x="1378" 
 />
    <glyph glyph-name="alefqamats" unicode="&#xfb2f;" horiz-adv-x="1378" 
 />
    <glyph glyph-name="alefmapiq" unicode="&#xfb30;" horiz-adv-x="1378" 
 />
    <glyph glyph-name="finalpedagesh" unicode="&#xfb43;" horiz-adv-x="1356" 
 />
    <glyph glyph-name="reshdagesh" unicode="&#xfb48;" horiz-adv-x="1166" 
 />
    <glyph glyph-name="betrafe" unicode="&#xfb4c;" horiz-adv-x="1310" 
 />
    <glyph glyph-name="kafrafe" unicode="&#xfb4d;" horiz-adv-x="1272" 
 />
    <glyph glyph-name="perafe" unicode="&#xfb4e;" horiz-adv-x="1335" 
 />
    <glyph glyph-name="aleflamed" unicode="&#xfb4f;" horiz-adv-x="1398" 
 />
    <glyph glyph-name="zerowidthnonjoiner" unicode="&#x200c;" 
d="M36 1289v-1564h-72v1564h72z" />
    <glyph glyph-name="zerowidthjoiner" unicode="&#x200d;" 
d="M36 -275h-72v1389l-134 -136l-49 49l171 169l-171 168l49 49l170 -171l170 171l49 -49l-171 -168l171 -169l-49 -49l-134 136v-1389z" />
    <glyph glyph-name="lefttorightmark" unicode="&#x200e;" 
d="M430 1198l-217 -214l-49 49l137 130h-266v-1438h-71v1509h337l-137 130l49 49z" />
    <glyph glyph-name="righttoleftmark" unicode="&#x200f;" 
d="M35 -275h-71v1438h-266l137 -130l-49 -49l-217 214l217 215l49 -49l-137 -130h337v-1509z" />
    <glyph glyph-name="afii57388.001" unicode="&#x66c;" horiz-adv-x="353" 
d="M210 654q-10 -27 -25 -51q-5 -6 -11.5 -9.5t-11.5 -3.5t-7.5 3t0.5 10q32 57 47.5 110.5t15.5 86.5q-24 6 -39 16t-24 21.5t-12 21.5t-3 15q0 16 5.5 33t15 30.5t23 22t29.5 8.5q59 0 59 -94q0 -15 -4 -39t-12 -53.5t-19.5 -62t-26.5 -65.5z" />
    <glyph glyph-name="afii57409" unicode="&#x621;" horiz-adv-x="952" 
d="M880 189l-542 -228l-47 131l187 75q-28 17 -46.5 38.5t-29 45t-14 48.5t-2.5 50q2 48 21.5 89t51.5 71.5t73.5 48.5t85.5 20.5t88.5 -12.5t83.5 -51l-61 -130q-33 28 -70.5 36.5t-76.5 -10.5q-20 -10 -28.5 -34.5t-5.5 -50.5t18 -46.5t41 -21.5q32 -2 87 16.5t124 52.5z
" />
    <glyph glyph-name="afii57440" unicode="&#x640;" horiz-adv-x="594" 
d="M629 0h-656v227h656v-227z" />
    <glyph glyph-name="afii57453" unicode="&#x64d;" 
d="M-289 101l545 141v-98l-545 -139v96zM-289 -79l545 141v-98l-545 -139v96z" />
    <glyph glyph-name="afii57381" unicode="&#x66a;" horiz-adv-x="1290" 
d="M1148 1481l-822 -1487h-191l811 1487h202zM133 1321q0 59 42 102t101 43q60 0 103 -43t43 -102t-43 -101t-103 -42q-59 0 -101 42t-42 101zM801 147q0 60 42 103t101 43q60 0 103 -43t43 -103q0 -59 -43 -101t-103 -42q-59 0 -101 42t-42 101z" />
    <glyph glyph-name="afii57461" unicode="&#x66b;" horiz-adv-x="1178" 
d="M1093 722l-822 -1487h-191l811 1487h202z" />
    <glyph glyph-name="afii63167" unicode="&#x66d;" horiz-adv-x="1118" 
d="M694 729l363 4v-123l-355 2l269 -260l-88 -88l-267 275l7 -371h-125l4 371l-266 -275l-89 88l275 262l-359 -4v123l357 -4l-250 246l88 90l244 -248l-4 359h125l-7 -363l244 252l88 -90z" />
    <glyph glyph-name="afii57543" horiz-adv-x="936" 
d="M983 0l-135 4l-68 10l-53 27l-65 51q-111 -92 -220 -92h-489v227h422q112 0 149 58q17 28 17 121v313h233v-313q0 -109 37 -142q47 -37 172 -37v-227z" />
    <glyph glyph-name="afii57534" unicode="&#x6d5;" horiz-adv-x="1028" 
d="M961 395q0 -168 -130.5 -295t-306.5 -127q-180 0 -306 130t-126 309q0 125 76 254l72 92l112 110l-67 78l155 156l414 -432q107 -133 107 -275zM733 395q0 68 -33 113l-186 194q-102 -100 -166 -182l-24 -47l-17 -78q0 -47 51 -125q68 -77 166 -77q101 0 162 71
q47 58 47 131z" />
    <glyph glyph-name="afii57494" horiz-adv-x="363" 
 />
    <glyph glyph-name="afii64240" horiz-adv-x="517" 
d="M94 154q0 31 12 59t33 49t49 33.5t60 12.5q31 0 59 -12.5t49 -33.5t33 -49t12 -59q0 -32 -12 -59.5t-33 -48.5t-49 -33t-59 -12q-32 0 -60 12t-49 33t-33 48.5t-12 59.5z" />
    <glyph glyph-name="afii64241" horiz-adv-x="862" 
d="M471 154q0 31 12 59t33 49t49 33.5t60 12.5q31 0 59 -12.5t49 -33.5t33.5 -49t12.5 -59q0 -32 -12.5 -59.5t-33.5 -48.5t-49 -33t-59 -12q-32 0 -60 12t-49 33t-33 48.5t-12 59.5zM122 154q0 31 12 59t33 49t48.5 33.5t59.5 12.5q31 0 59 -12.5t49 -33.5t33.5 -49
t12.5 -59q0 -32 -12.5 -59.5t-33.5 -48.5t-49 -33t-59 -12q-32 0 -59.5 12t-48.5 33t-33 48.5t-12 59.5z" />
    <glyph glyph-name="afii63954" horiz-adv-x="817" 
d="M559 504q0 -32 -12.5 -60t-33.5 -49t-49 -33t-59 -12q-32 0 -59.5 12t-48.5 33t-33 49t-12 60q0 31 12 59t33 49t48.5 33.5t59.5 12.5q31 0 59 -12.5t49 -33.5t33.5 -49t12.5 -59zM383 156q0 -32 -12.5 -60t-33.5 -49t-49 -33t-59 -12q-32 0 -59.5 12t-48.5 33t-33 49
t-12 60q0 31 12 59t33 49t48.5 33.5t59.5 12.5q31 0 59 -12.5t49 -33.5t33.5 -49t12.5 -59zM753 156q0 -32 -12.5 -60t-33.5 -49t-49 -33t-59 -12q-32 0 -60 12t-49 33t-33 49t-12 60q0 31 12 59t33 49t49 33.5t60 12.5q31 0 59 -12.5t49 -33.5t33.5 -49t12.5 -59z" />
    <glyph glyph-name="afii57382" horiz-adv-x="797" 
d="M559 -504q0 -32 -12.5 -60t-33.5 -49t-49 -33t-59 -12q-32 0 -59.5 12t-48.5 33t-33 49t-12 60q0 31 12 59t33 49t48.5 33.5t59.5 12.5q31 0 59 -12.5t49 -33.5t33.5 -49t12.5 -59zM383 -156q0 -32 -12.5 -60t-33.5 -49t-49 -33t-59 -12q-32 0 -59.5 12t-48.5 33t-33 49
t-12 60q0 31 12 59t33 49t48.5 33.5t59.5 12.5q31 0 59 -12.5t49 -33.5t33.5 -49t12.5 -59zM753 -156q0 -32 -12.5 -60t-33.5 -49t-49 -33t-59 -12q-32 0 -60 12t-49 33t-33 49t-12 60q0 31 12 59t33 49t49 33.5t60 12.5q31 0 59 -12.5t49 -33.5t33.5 -49t12.5 -59z" />
    <glyph glyph-name="afii64242" horiz-adv-x="743" 
d="M662 373q0 -150 -99.5 -261.5t-234.5 -111.5h-371v227h299q113 0 154 58q16 28 16 121v313h236v-346z" />
    <glyph glyph-name="afii62881" unicode="&#xe818;" 
d="M-261 678l545 141v-98l-545 -139v96zM-261 498l545 141v-98l-545 -139v96zM-252 279h96v-136q3 -31 53.5 -34t50.5 34v136h96v-136q0 -21 16 -31t51 -8t35 32v143h100v-131q-4 -66 -26 -89q-42 -48 -107 -46q-66 0 -113 46q-31 -51 -123 -51q-61 0 -95 37t-34 103v131z
" />
    <glyph glyph-name="afii57373" 
d="M598 1669l-458 -166l-31 101l104 39q-38 33 -50.5 74t-5.5 81.5t31 78t59 64t79 38.5t91 2q28 -5 51.5 -19.5t49.5 -37.5l-66 -96q-25 25 -43.5 30t-34.5 7q-14 1 -30.5 -2t-30.5 -11.5t-24.5 -21.5t-12.5 -31q-2 -16 3 -29t14.5 -22.5t23 -15.5t28.5 -7q64 -7 208 50z
" />
    <glyph glyph-name="afii57375" unicode="&#x653;" horiz-adv-x="1127" 
d="M970 1618h-472q-93 3 -136.5 -40.5t-86.5 -125.5l-177 66q76 184 133 227q48 41 101 59t140 20h498v-206z" />
    <glyph glyph-name="afii57391" unicode="&#xe83a;" horiz-adv-x="1024" 
d="M1024 0h-1094v188h1094v-188z" />
    <glyph glyph-name="afii57471" horiz-adv-x="2173" 
d="M2214 0l-143 6l-97 14q-78 23 -123 72q-114 -92 -219 -92h-1202q-135 0 -231.5 116.5t-96.5 256.5v346h230v-313q0 -93 22 -121q37 -58 146 -58h1061q96 0 125 23q47 41 47 156v313h231v-313q0 -84 37 -121q57 -58 213 -58v-227z" />
    <glyph glyph-name="afii57506" unicode="&#x67e;" horiz-adv-x="2028" 
d="M1956 373q0 -150 -101.5 -261.5t-228.5 -111.5h-1206q-135 0 -230.5 116.5t-95.5 256.5v346h228v-313q0 -82 20 -121q37 -58 147 -58h1070q110 0 145 58q22 26 22 121v313h230v-346zM1157 -716q0 -32 -12.5 -60t-33.5 -49t-49 -33t-59 -12q-32 0 -59.5 12t-48.5 33
t-33 49t-12 60q0 31 12 59t33 49t48.5 33.5t59.5 12.5q31 0 59 -12.5t49 -33.5t33.5 -49t12.5 -59zM981 -368q0 -32 -12.5 -60t-33.5 -49t-49 -33t-59 -12q-32 0 -59.5 12t-48.5 33t-33 49t-12 60q0 31 12 59t33 49t48.5 33.5t59.5 12.5q31 0 59 -12.5t49 -33.5t33.5 -49
t12.5 -59zM1351 -368q0 -32 -12.5 -60t-33.5 -49t-49 -33t-59 -12q-32 0 -60 12t-49 33t-33 49t-12 60q0 31 12 59t33 49t49 33.5t60 12.5q31 0 59 -12.5t49 -33.5t33.5 -49t12.5 -59z" />
    <glyph glyph-name="afii57505" unicode="&#x6a4;" horiz-adv-x="1555" 
 />
    <glyph glyph-name="afii62889" horiz-adv-x="1714" 
d="M1757 0h-188q0 -131 -47 -223q-41 -109 -138 -193q-163 -162 -397 -162h-352q-209 0 -376 182.5t-167 409.5v335h225v-365q0 -125 132 -234q112 -94 231 -94h301q131 0 236 100q61 47 92.5 108.5t31.5 135.5q-333 0 -415 31q-199 67 -199 323q0 162 114.5 263.5
t286.5 101.5q177 0 306 -117q141 -133 141 -375h182v-227zM1348 227q0 111 -88 195q-68 61 -154 61q-72 0 -116 -31.5t-44 -82.5q0 -88 78 -125q57 -17 324 -17z" />
    <glyph glyph-name="afii62887" horiz-adv-x="2042" 
d="M1956 373q0 -150 -101.5 -261.5t-228.5 -111.5h-1206q-135 0 -230.5 116.5t-95.5 256.5v346h228v-313q0 -82 20 -121q37 -58 147 -58h1070q110 0 145 58q22 26 22 121v313h230v-346z" />
    <glyph glyph-name="afii62888" unicode="&#x6a1;" horiz-adv-x="2042" 
d="M1950 416q0 -228 -140 -338q-100 -78 -215 -78h-1185q-129 0 -242 111q-86 112 -86 262v346h225v-313q0 -95 21 -121q37 -58 149 -58h1092q104 0 137 47q8 11 25 127q-355 0 -478 62q-110 61 -110 274q0 158 99 261.5t286 103.5q166 0 291 -124t125 -308zM1726 612
q0 121 -73 203q-64 57 -146 57q-172 0 -172 -143q0 -88 84 -106l92 -11h215z" />
    <glyph glyph-name="afii57507" unicode="&#x686;" horiz-adv-x="1540" 
d="M1573 -1106h-625q-362 0 -588 260q-166 203 -166 447v47l6 51q35 317 328 473l705 385q-52 98 -150 115.5t-612 17.5l-33 223h553q227 0 352 -120.5t125 -350.5l-749 -422q-308 -172 -308 -426q0 -182 154 -325t322 -143h665zM1193 -592q0 -32 -12.5 -60t-33.5 -49
t-49 -33t-59 -12q-32 0 -59.5 12t-48.5 33t-33 49t-12 60q0 31 12 59t33 49t48.5 33.5t59.5 12.5q31 0 59 -12.5t49 -33.5t33.5 -49t12.5 -59zM1017 -244q0 -32 -12.5 -60t-33.5 -49t-49 -33t-59 -12q-32 0 -59.5 12t-48.5 33t-33 49t-12 60q0 31 12 59t33 49t48.5 33.5
t59.5 12.5q31 0 59 -12.5t49 -33.5t33.5 -49t12.5 -59zM1387 -244q0 -32 -12.5 -60t-33.5 -49t-49 -33t-59 -12q-32 0 -60 12t-49 33t-33 49t-12 60q0 31 12 59t33 49t49 33.5t60 12.5q31 0 59 -12.5t49 -33.5t33.5 -49t12.5 -59z" />
    <glyph glyph-name="afii57508" unicode="&#x698;" horiz-adv-x="1061" 
d="M971 41q0 -248 -165 -433.5t-407 -185.5h-301l-41 234h256q203 0 322 111q98 88 98 217v735h238v-678zM838 1434q0 -32 -12.5 -60t-33.5 -49t-49 -33t-59 -12q-32 0 -59.5 12t-48.5 33t-33 49t-12 60q0 31 12 59t33 49t48.5 33.5t59.5 12.5q31 0 59 -12.5t49 -33.5
t33.5 -49t12.5 -59zM662 1086q0 -32 -12.5 -60t-33.5 -49t-49 -33t-59 -12q-32 0 -59.5 12t-48.5 33t-33 49t-12 60q0 31 12 59t33 49t48.5 33.5t59.5 12.5q31 0 59 -12.5t49 -33.5t33.5 -49t12.5 -59zM1032 1086q0 -32 -12.5 -60t-33.5 -49t-49 -33t-59 -12q-32 0 -60 12
t-49 33t-33 49t-12 60q0 31 12 59t33 49t49 33.5t60 12.5q31 0 59 -12.5t49 -33.5t33.5 -49t12.5 -59z" />
    <glyph glyph-name="afii57567" unicode="&#x6a9;" horiz-adv-x="2011" 
d="M1944 307q0 -98 -72 -186q-90 -121 -281 -121h-1175q-135 0 -228.5 109.5t-93.5 263.5v346h228v-313q0 -95 20 -121q37 -58 147 -58h1096q119 0 119 107q0 51 -35 86l-598 620l-54 226l915 345l30 -219l-664 -253l541 -568q102 -110 105 -264z" />
    <glyph glyph-name="afii57509" unicode="&#x6af;" horiz-adv-x="2003" 
d="M1916 1726l-860 -309l-12 88l864 305zM1944 307q0 -98 -72 -186q-90 -121 -281 -121h-1175q-135 0 -228.5 109.5t-93.5 263.5v346h228v-313q0 -95 20 -121q37 -58 147 -58h1096q119 0 119 107q0 51 -35 86l-598 620l-14 245l879 321l26 -214l-664 -253l541 -568
q102 -110 105 -264z" />
    <glyph glyph-name="afii57555" unicode="&#x6cc;" horiz-adv-x="1636" 
d="M1561 -74q0 -153 -43 -239q-25 -99 -129 -197q-162 -156 -392 -156h-352q-223 0 -383 177.5t-160 414.5v469h215v-499q0 -150 132 -261q108 -77 241 -77h297q121 0 230 80q120 102 120 231q0 104 -86 131t-440 27v389q0 168 119 288.5t282 120.5h279l10 -213h-280
q-115 0 -170 -112q-27 -90 -27 -260q307 0 416 -54q121 -65 121 -260z" />
    <glyph glyph-name="afii62945" horiz-adv-x="2859" 
d="M2697 352q0 -133 -67 -221q-103 -131 -301 -131h-218q-131 0 -194 14q-62 17 -135 78q-82 -67 -154 -82q-59 -10 -301 -10q-137 4 -188 41q-27 12 -240 205q-129 -273 -420 -273q-178 0 -307 127t-129 312q0 125 88 254q47 73 180 202l-67 78l157 156l684 -727
q84 -90 127 -125q45 -23 146 -23v-2l61 -2h78q88 0 125 43q14 15 27 56q14 40 14 127v1017h225v-1060q0 -121 76 -160q74 -19 215 -19h139q90 0 131 58q25 49 25 164v1017h223v-1114zM700 395q0 58 -41 125l-182 182q-129 -118 -166 -180q-37 -59 -37 -127q0 -57 52 -131
q53 -71 157 -71q101 0 166 77q51 58 51 125z" />
    <glyph glyph-name="afii52400" unicode="&#x622;" horiz-adv-x="795" 
d="M543 0h-227v1279.71h227v-1279.71zM789 1445h-472q-93 3 -136.5 -40.5t-86.5 -125.5l-177 66q76 184 133 227q48 41 101 59t140 20h498v-206z" />
    <glyph glyph-name="afii57411" unicode="&#x623;" horiz-adv-x="568" 
d="M613 1734l-458 -166l-31 101l104 39q-38 33 -50.5 74t-5.5 81.5t31 78t59 64t79 38.5t91 2q28 -5 51.5 -19.5t49.5 -37.5l-66 -96q-25 25 -43.5 30t-34.5 7q-14 1 -30.5 -2t-30.5 -11.5t-24.5 -21.5t-12.5 -31q-2 -16 3 -29t14.5 -22.5t23 -15.5t28.5 -7q64 -7 208 50z
M477 0h-227v1466h227v-1466z" />
    <glyph glyph-name="afii57412" unicode="&#x624;" horiz-adv-x="1054" 
d="M989 -31q0 -198 -167 -372.5t-406 -174.5h-291l-31 226h287q170 0 276.5 106.5t106.5 245.5q-264 0 -406 72q-186 90 -186 358q0 289 139 412q90 73 273 73q258 0 356 -215q49 -129 49 -444v-287zM764 227v240q0 219 -180 219q-84 0 -127 -45q-45 -53 -45 -199
q0 -129 66.5 -172t285.5 -43zM750 1223l-458 -166l-31 101l104 39q-38 33 -50.5 74t-5.5 81.5t31 78t59 64t79 38.5t91 2q28 -5 51.5 -19.5t49.5 -37.5l-66 -96q-25 25 -43.5 30t-34.5 7q-14 1 -30.5 -2t-30.5 -11.5t-24.5 -21.5t-12.5 -31q-2 -16 3 -29t14.5 -22.5
t23 -15.5t28.5 -7q64 -7 208 50z" />
    <glyph glyph-name="afii57413" unicode="&#x625;" horiz-adv-x="568" 
d="M477 0h-227v1466h227v-1466zM583 -511l-458 -166l-31 101l104 39q-38 33 -50.5 74t-5.5 81.5t31 78t59 64t79 38.5t91 2q28 -5 51.5 -19.5t49.5 -37.5l-66 -96q-25 25 -43.5 30t-34.5 7q-14 1 -30.5 -2t-30.5 -11.5t-24.5 -21.5t-12.5 -31q-2 -16 3 -29t14.5 -22.5
t23 -15.5t28.5 -7q64 -7 208 50z" />
    <glyph glyph-name="afii57414" unicode="&#x626;" horiz-adv-x="1636" 
d="M1561 -74q0 -153 -43 -239q-25 -99 -129 -197q-162 -156 -392 -156h-352q-223 0 -383 177.5t-160 414.5v469h215v-499q0 -150 132 -261q108 -77 241 -77h297q121 0 230 80q120 102 120 231q0 104 -86 131t-440 27v389q0 168 119 288.5t282 120.5h279l10 -213h-280
q-115 0 -170 -112q-27 -90 -27 -260q307 0 416 -54q121 -65 121 -260zM795 959l-458 -166l-31 101l104 39q-38 33 -50.5 74t-5.5 81.5t31 78t59 64t79 38.5t91 2q28 -5 51.5 -19.5t49.5 -37.5l-66 -96q-25 25 -43.5 30t-34.5 7q-14 1 -30.5 -2t-30.5 -11.5t-24.5 -21.5
t-12.5 -31q-2 -16 3 -29t14.5 -22.5t23 -15.5t28.5 -7q64 -7 208 50z" />
    <glyph glyph-name="afii57415.001" unicode="&#x627;" horiz-adv-x="568" 
d="M477 0h-227v1466h227v-1466z" />
    <glyph glyph-name="afii62760.001" horiz-adv-x="655" 
d="M690 0q-299 0 -409 111q-78 86 -78 241v1082h229v-985q0 -154 41 -188t217 -34v-227z" />
    <glyph glyph-name="afii57416" unicode="&#x628;" horiz-adv-x="2020" 
d="M1956 373q0 -150 -101.5 -261.5t-228.5 -111.5h-1206q-135 0 -230.5 116.5t-95.5 256.5v346h228v-313q0 -82 20 -121q37 -58 147 -58h1070q110 0 145 58q22 26 22 121v313h230v-346zM860 -369q0 31 12 59t33 49t49 33.5t60 12.5q31 0 59 -12.5t49 -33.5t33 -49t12 -59
q0 -32 -12 -59.5t-33 -48.5t-49 -33t-59 -12q-32 0 -60 12t-49 33t-33 48.5t-12 59.5z" />
    <glyph glyph-name="afii57417" unicode="&#x629;" horiz-adv-x="1028" 
d="M961 395q0 -168 -130.5 -295t-306.5 -127q-180 0 -306 130t-126 309q0 125 76 254l72 92l112 110l-67 78l155 156l414 -432q107 -133 107 -275zM733 395q0 68 -33 113l-186 194q-102 -100 -166 -182l-24 -47l-17 -78q0 -47 51 -125q68 -77 166 -77q101 0 162 71
q47 58 47 131zM511 1380q0 31 12 59t33 49t49 33.5t60 12.5q31 0 59 -12.5t49 -33.5t33.5 -49t12.5 -59q0 -32 -12.5 -59.5t-33.5 -48.5t-49 -33t-59 -12q-32 0 -60 12t-49 33t-33 48.5t-12 59.5zM162 1380q0 31 12 59t33 49t48.5 33.5t59.5 12.5q31 0 59 -12.5t49 -33.5
t33.5 -49t12.5 -59q0 -32 -12.5 -59.5t-33.5 -48.5t-49 -33t-59 -12q-32 0 -59.5 12t-48.5 33t-33 48.5t-12 59.5z" />
    <glyph glyph-name="afii57418" unicode="&#x62a;" horiz-adv-x="2014" 
d="M1956 373q0 -150 -101.5 -261.5t-228.5 -111.5h-1206q-135 0 -230.5 116.5t-95.5 256.5v346h228v-313q0 -82 20 -121q37 -58 147 -58h1070q110 0 145 58q22 26 22 121v313h230v-346zM1079 1086q0 31 12 59t33 49t49 33.5t60 12.5q31 0 59 -12.5t49 -33.5t33.5 -49
t12.5 -59q0 -32 -12.5 -59.5t-33.5 -48.5t-49 -33t-59 -12q-32 0 -60 12t-49 33t-33 48.5t-12 59.5zM730 1086q0 31 12 59t33 49t48.5 33.5t59.5 12.5q31 0 59 -12.5t49 -33.5t33.5 -49t12.5 -59q0 -32 -12.5 -59.5t-33.5 -48.5t-49 -33t-59 -12q-32 0 -59.5 12t-48.5 33
t-33 48.5t-12 59.5z" />
    <glyph glyph-name="afii57419" unicode="&#x62b;" horiz-adv-x="2023" 
d="M1956 373q0 -150 -101.5 -261.5t-228.5 -111.5h-1206q-135 0 -230.5 116.5t-95.5 256.5v346h228v-313q0 -82 20 -121q37 -58 147 -58h1070q110 0 145 58q22 26 22 121v313h230v-346zM1153 1435q0 -32 -12.5 -60t-33.5 -49t-49 -33t-59 -12q-32 0 -59.5 12t-48.5 33
t-33 49t-12 60q0 31 12 59t33 49t48.5 33.5t59.5 12.5q31 0 59 -12.5t49 -33.5t33.5 -49t12.5 -59zM977 1087q0 -32 -12.5 -60t-33.5 -49t-49 -33t-59 -12q-32 0 -59.5 12t-48.5 33t-33 49t-12 60q0 31 12 59t33 49t48.5 33.5t59.5 12.5q31 0 59 -12.5t49 -33.5t33.5 -49
t12.5 -59zM1347 1087q0 -32 -12.5 -60t-33.5 -49t-49 -33t-59 -12q-32 0 -60 12t-49 33t-33 49t-12 60q0 31 12 59t33 49t49 33.5t60 12.5q31 0 59 -12.5t49 -33.5t33.5 -49t12.5 -59z" />
    <glyph glyph-name="afii57420" unicode="&#x62c;" horiz-adv-x="1540" 
d="M864 -385q0 31 12 59t33 49t49 33.5t60 12.5q31 0 59 -12.5t49 -33.5t33 -49t12 -59q0 -32 -12 -59.5t-33 -48.5t-49 -33t-59 -12q-32 0 -60 12t-49 33t-33 48.5t-12 59.5zM1573 -1106h-625q-362 0 -588 260q-166 203 -166 447v47l6 51q35 317 328 473l705 385
q-52 98 -150 115.5t-612 17.5l-33 223h553q227 0 352 -120.5t125 -350.5l-749 -422q-308 -172 -308 -426q0 -182 154 -325t322 -143h665z" />
    <glyph glyph-name="afii57421" unicode="&#x62d;" horiz-adv-x="1540" 
d="M1573 -1106h-625q-362 0 -588 260q-166 203 -166 447v47l6 51q35 317 328 473l705 385q-52 98 -150 115.5t-612 17.5l-33 223h553q227 0 352 -120.5t125 -350.5l-749 -422q-308 -172 -308 -426q0 -182 154 -325t322 -143h665z" />
    <glyph glyph-name="afii57422" unicode="&#x62e;" horiz-adv-x="1540" 
d="M1573 -1106h-625q-362 0 -588 260q-166 203 -166 447v47l6 51q35 317 328 473l705 385q-52 98 -150 115.5t-612 17.5l-33 223h553q227 0 352 -120.5t125 -350.5l-749 -422q-308 -172 -308 -426q0 -182 154 -325t322 -143h665zM669 1267q0 31 12 59t33 49t49 33.5t60 12.5
q31 0 59 -12.5t49 -33.5t33 -49t12 -59q0 -32 -12 -59.5t-33 -48.5t-49 -33t-59 -12q-32 0 -60 12t-49 33t-33 48.5t-12 59.5z" />
    <glyph glyph-name="afii57423" unicode="&#x62f;" horiz-adv-x="1305" 
d="M1248 303q0 -135 -92 -219t-246 -84h-702l-33 227h723q129 0 129 90q0 48 -39 84l-512 545l153 156l519 -547q100 -113 100 -252z" />
    <glyph glyph-name="afii57424" unicode="&#x630;" horiz-adv-x="1305" 
d="M1248 303q0 -135 -92 -219t-246 -84h-702l-33 227h723q129 0 129 90q0 48 -39 84l-512 545l153 156l519 -547q100 -113 100 -252zM390 1395q0 31 12 59t33 49t49 33.5t60 12.5q31 0 59 -12.5t49 -33.5t33 -49t12 -59q0 -32 -12 -59.5t-33 -48.5t-49 -33t-59 -12
q-32 0 -60 12t-49 33t-33 48.5t-12 59.5z" />
    <glyph glyph-name="afii57425" unicode="&#x631;" horiz-adv-x="1039" 
d="M971 41q0 -248 -165 -433.5t-407 -185.5h-301l-41 234h256q203 0 322 111q98 88 98 217v735h238v-678z" />
    <glyph glyph-name="afii57426" unicode="&#x632;" horiz-adv-x="1039" 
d="M971 41q0 -248 -165 -433.5t-407 -185.5h-301l-41 234h256q203 0 322 111q98 88 98 217v735h238v-678zM581 1099q0 31 12 59t33 49t49 33.5t60 12.5q31 0 59 -12.5t49 -33.5t33 -49t12 -59q0 -32 -12 -59.5t-33 -48.5t-49 -33t-59 -12q-32 0 -60 12t-49 33t-33 48.5
t-12 59.5z" />
    <glyph glyph-name="afii57427" unicode="&#x633;" horiz-adv-x="2807" 
d="M2746 365q0 -179 -89 -284.5t-220 -105.5q-156 0 -321 156q-115 -156 -275 -156q-117 0 -256 97q0 -281 -164 -465.5t-401 -184.5h-350q-224 0 -392.5 175.5t-168.5 416.5v475h223v-485q0 -149 102.5 -252.5t265.5 -103.5h293q162 0 263.5 100t101.5 256v715h227v-340
q0 -88 74 -141q57 -45 125 -45q151 0 151 145v381h232v-338q0 -78 69 -143q62 -45 123 -45q158 0 158 145v381h229v-354z" />
    <glyph glyph-name="afii57428" unicode="&#x634;" horiz-adv-x="2802" 
d="M2746 365q0 -179 -89 -284.5t-220 -105.5q-156 0 -321 156q-115 -156 -275 -156q-117 0 -256 97q0 -281 -164 -465.5t-401 -184.5h-350q-224 0 -392.5 175.5t-168.5 416.5v475h223v-485q0 -149 102.5 -252.5t265.5 -103.5h293q162 0 263.5 100t101.5 256v715h227v-340
q0 -88 74 -141q57 -45 125 -45q151 0 151 145v381h232v-338q0 -78 69 -143q62 -45 123 -45q158 0 158 145v381h229v-354zM2214 1427q0 -32 -12.5 -60t-33.5 -49t-49 -33t-59 -12q-32 0 -59.5 12t-48.5 33t-33 49t-12 60q0 31 12 59t33 49t48.5 33.5t59.5 12.5q31 0 59 -12.5
t49 -33.5t33.5 -49t12.5 -59zM2038 1079q0 -32 -12.5 -60t-33.5 -49t-49 -33t-59 -12q-32 0 -59.5 12t-48.5 33t-33 49t-12 60q0 31 12 59t33 49t48.5 33.5t59.5 12.5q31 0 59 -12.5t49 -33.5t33.5 -49t12.5 -59zM2408 1079q0 -32 -12.5 -60t-33.5 -49t-49 -33t-59 -12
q-32 0 -60 12t-49 33t-33 49t-12 60q0 31 12 59t33 49t49 33.5t60 12.5q31 0 59 -12.5t49 -33.5t33.5 -49t12.5 -59z" />
    <glyph glyph-name="afii57429" unicode="&#x635;" horiz-adv-x="2890" 
d="M2824 406q0 -168 -101.5 -287t-303.5 -119h-619q-194 0 -241 121q0 -299 -163 -499t-407 -200h-348q-229 0 -396 187.5t-167 431.5v448h225v-505q0 -109 113.5 -218.5t245.5 -109.5h319q131 0 238.5 104.5t107.5 223.5v735h234v-340q0 -152 221 -152q125 330 295 508
t342 178q82 0 176 -55q104 -57 166 -188l47 -133q16 -60 16 -131zM2601 432q0 119 -86 230q-10 24 -51 24q-99 0 -232 -142.5t-219 -316.5h445q59 0 101 62.5t42 142.5z" />
    <glyph glyph-name="afii57430" unicode="&#x636;" horiz-adv-x="2890" 
d="M2824 406q0 -168 -101.5 -287t-303.5 -119h-619q-194 0 -241 121q0 -299 -163 -499t-407 -200h-348q-229 0 -396 187.5t-167 431.5v448h225v-505q0 -109 113.5 -218.5t245.5 -109.5h319q131 0 238.5 104.5t107.5 223.5v735h234v-340q0 -152 221 -152q125 330 295 508
t342 178q82 0 176 -55q104 -57 166 -188l47 -133q16 -60 16 -131zM2601 432q0 119 -86 230q-10 24 -51 24q-99 0 -232 -142.5t-219 -316.5h445q59 0 101 62.5t42 142.5zM1656 1189q0 31 12 59t33 49t49 33.5t60 12.5q31 0 59 -12.5t49 -33.5t33 -49t12 -59q0 -32 -12 -59.5
t-33 -48.5t-49 -33t-59 -12q-32 0 -60 12t-49 33t-33 48.5t-12 59.5z" />
    <glyph glyph-name="afii57431" unicode="&#x637;" horiz-adv-x="1301" 
d="M1260 416q0 -172 -91 -287q-98 -129 -274 -129h-793l-45 227h189v1239h227v-817q213 264 391 264q68 0 174 -55q105 -57 158 -186q64 -125 64 -256zM1028 457q0 145 -72 205q-10 8 -67 20q-92 0 -227 -145q-125 -121 -205 -310h438q47 0 98 70q35 65 35 160z" />
    <glyph glyph-name="afii57432" unicode="&#x638;" horiz-adv-x="1306" 
d="M1260 416q0 -172 -91 -287q-98 -129 -274 -129h-793l-45 227h189v1239h227v-817q213 264 391 264q68 0 174 -55q105 -57 158 -186q64 -125 64 -256zM1028 457q0 145 -72 205q-10 8 -67 20q-92 0 -227 -145q-125 -121 -205 -310h438q47 0 98 70q35 65 35 160zM710 1252
q0 31 12 59t33 49t49 33.5t60 12.5q31 0 59 -12.5t49 -33.5t33 -49t12 -59q0 -32 -12 -59.5t-33 -48.5t-49 -33t-59 -12q-32 0 -60 12t-49 33t-33 48.5t-12 59.5z" />
    <glyph glyph-name="afii57433" unicode="&#x639;" horiz-adv-x="1525" 
d="M1497 -1106h-602q-318 0 -541 223q-203 207 -203 482q0 202 117 372t362 273q-73 137 -73 266q0 182 121 297q61 47 144 76.5t173 29.5q180 0 383 -174l-109 -174q-192 135 -311 135q-125 0 -162 -127q-10 -47 -14 -49v-37q0 -65 29 -135q57 -125 161 -125h453l31 -227
h-758q-141 0 -229 -119t-88 -287q0 -182 119.5 -325t340.5 -143h621z" />
    <glyph glyph-name="afii57434" unicode="&#x63a;" horiz-adv-x="1525" 
d="M1497 -1106h-602q-318 0 -541 223q-203 207 -203 482q0 202 117 372t362 273q-73 137 -73 266q0 182 121 297q61 47 144 76.5t173 29.5q180 0 383 -174l-109 -174q-192 135 -311 135q-125 0 -162 -127q-10 -47 -14 -49v-37q0 -65 29 -135q57 -125 161 -125h453l31 -227
h-758q-141 0 -229 -119t-88 -287q0 -182 119.5 -325t340.5 -143h621zM850 1239q0 31 12 59t33 49t49 33.5t60 12.5q31 0 59 -12.5t49 -33.5t33 -49t12 -59q0 -32 -12 -59.5t-33 -48.5t-49 -33t-59 -12q-32 0 -60 12t-49 33t-33 48.5t-12 59.5z" />
    <glyph glyph-name="afii57441" unicode="&#x641;" horiz-adv-x="2042" 
d="M1950 416q0 -228 -140 -338q-100 -78 -215 -78h-1185q-129 0 -242 111q-86 112 -86 262v346h225v-313q0 -95 21 -121q37 -58 149 -58h1092q104 0 137 47q8 11 25 127q-355 0 -478 62q-110 61 -110 274q0 158 99 261.5t286 103.5q166 0 291 -124t125 -308zM1726 612
q0 121 -73 203q-64 57 -146 57q-172 0 -172 -143q0 -88 84 -106l92 -11h215zM1383 1422q0 31 12 59t33 49t49 33.5t60 12.5q31 0 59 -12.5t49 -33.5t33 -49t12 -59q0 -32 -12 -59.5t-33 -48.5t-49 -33t-59 -12q-32 0 -60 12t-49 33t-33 48.5t-12 59.5z" />
    <glyph glyph-name="afii57442" unicode="&#x642;" horiz-adv-x="1700" 
d="M1622 37l-4 -84l-6 -98q-33 -224 -209 -359q-160 -114 -346 -114h-348q-236 0 -392.5 176t-156.5 426v312h213v-321q0 -161 100 -268.5t254 -107.5h317q148 0 254.5 106.5t106.5 293.5q-320 -9 -406 17q-182 62 -182 308q0 163 115 268q106 94 260 94q170 0 285 -108
q67 -64 106 -152t39 -188v-201zM1403 223q0 106 -76 178q-59 58 -147 58q-56 0 -115 -29q-47 -39 -47 -92q0 -88 58.5 -107.5t326.5 -7.5zM1208 1010q0 31 12 59t33 49t49 33.5t60 12.5q31 0 59 -12.5t49 -33.5t33.5 -49t12.5 -59q0 -32 -12.5 -59.5t-33.5 -48.5t-49 -33
t-59 -12q-32 0 -60 12t-49 33t-33 48.5t-12 59.5zM859 1010q0 31 12 59t33 49t48.5 33.5t59.5 12.5q31 0 59 -12.5t49 -33.5t33.5 -49t12.5 -59q0 -32 -12.5 -59.5t-33.5 -48.5t-49 -33t-59 -12q-32 0 -59.5 12t-48.5 33t-33 48.5t-12 59.5z" />
    <glyph glyph-name="afii57443" unicode="&#x643;" horiz-adv-x="1945" 
d="M1892 352q0 -133 -63 -221q-98 -131 -301 -131h-1112q-135 0 -234 111q-88 108 -88 262v346h228v-313q0 -95 20 -121q37 -58 147 -58h1024q95 0 136 58q24 49 24 164v1017h219v-1114zM1255 946l-438 -221l-54 129l97 51q-39 34 -58.5 73t-19.5 89q0 40 15.5 78.5
t47.5 70.5q32 36 73 54t89 18q25 -5 62 -17t85 -32l-65 -137q-57 43 -88 43q-13 0 -25.5 -5t-21.5 -18l2 4q-29 -37 -29 -59q0 -66 57 -66q33 0 84 20.5t119 57.5z" />
    <glyph glyph-name="afii57444" unicode="&#x644;" horiz-adv-x="1668" 
d="M1606 31q0 -275 -183 -447q-174 -162 -389 -162h-352q-209 0 -385 185.5t-176 406.5v475h231v-505q0 -140 113 -234t262 -94h291q125 0 229 94q129 98 129 234v1482h230v-1435z" />
    <glyph glyph-name="afii57445" unicode="&#x645;" horiz-adv-x="1434" 
d="M1378 381q0 -168 -119.5 -277.5t-275.5 -109.5t-280.5 107.5t-124.5 310.5v278l-41 2q-70 0 -142.5 -63.5t-72.5 -161.5v-1045h-224v1014q0 230 128 353.5t321 123.5h467q223 0 318 -159q57 -115 46 -373zM1159 395q0 209 -41 246q-53 49 -321 49v-317q0 -62 57 -109
q66 -45 129 -45q176 0 176 176z" />
    <glyph glyph-name="afii57446" unicode="&#x646;" horiz-adv-x="1645" 
d="M702 1047q0 31 12 59t33 49t49 33.5t60 12.5q31 0 59 -12.5t49 -33.5t33 -49t12 -59q0 -32 -12 -59.5t-33 -48.5t-49 -33t-59 -12q-32 0 -60 12t-49 33t-33 48.5t-12 59.5zM1571 37q0 -270 -178 -457q-166 -158 -396 -158h-352q-215 0 -381 179.5t-166 412.5v475h224
v-505q0 -129 102 -232.5t266 -103.5h293q141 0 252 95t111 241v735h225v-682z" />
    <glyph glyph-name="afii57447" unicode="&#x647;" horiz-adv-x="1028" 
d="M961 395q0 -168 -130.5 -295t-306.5 -127q-180 0 -306 130t-126 309q0 125 76 254l72 92l112 110l-67 78l155 156l414 -432q107 -133 107 -275zM733 395q0 68 -33 113l-186 194q-102 -100 -166 -182l-24 -47l-17 -78q0 -47 51 -125q68 -77 166 -77q101 0 162 71
q47 58 47 131z" />
    <glyph glyph-name="afii57448" unicode="&#x648;" horiz-adv-x="1054" 
d="M989 -31q0 -198 -167 -372.5t-406 -174.5h-291l-31 226h287q170 0 276.5 106.5t106.5 245.5q-264 0 -406 72q-186 90 -186 358q0 289 139 412q90 73 273 73q258 0 356 -215q49 -129 49 -444v-287zM764 227v240q0 219 -180 219q-84 0 -127 -45q-45 -53 -45 -199
q0 -129 66.5 -172t285.5 -43z" />
    <glyph glyph-name="afii57449" unicode="&#x649;" horiz-adv-x="1636" 
d="M1561 -74q0 -153 -43 -239q-25 -99 -129 -197q-162 -156 -392 -156h-352q-223 0 -383 177.5t-160 414.5v469h215v-499q0 -150 132 -261q108 -77 241 -77h297q121 0 230 80q120 102 120 231q0 104 -86 131t-440 27v389q0 168 119 288.5t282 120.5h279l10 -213h-280
q-115 0 -170 -112q-27 -90 -27 -260q307 0 416 -54q121 -65 121 -260z" />
    <glyph glyph-name="afii57450" unicode="&#x64a;" horiz-adv-x="1636" 
d="M1561 -74q0 -153 -43 -239q-25 -99 -129 -197q-162 -156 -392 -156h-352q-223 0 -383 177.5t-160 414.5v469h215v-499q0 -150 132 -261q108 -77 241 -77h297q121 0 230 80q120 102 120 231q0 104 -86 131t-440 27v389q0 168 119 288.5t282 120.5h279l10 -213h-280
q-115 0 -170 -112q-27 -90 -27 -260q307 0 416 -54q121 -65 121 -260zM811 -981q0 31 12 59t33 49t49 33.5t60 12.5q31 0 59 -12.5t49 -33.5t33.5 -49t12.5 -59q0 -32 -12.5 -59.5t-33.5 -48.5t-49 -33t-59 -12q-32 0 -60 12t-49 33t-33 48.5t-12 59.5zM462 -981q0 31 12 59
t33 49t48.5 33.5t59.5 12.5q31 0 59 -12.5t49 -33.5t33.5 -49t12.5 -59q0 -32 -12.5 -59.5t-33.5 -48.5t-49 -33t-59 -12q-32 0 -59.5 12t-48.5 33t-33 48.5t-12 59.5z" />
    <glyph glyph-name="uni06C0" unicode="&#x6c0;" horiz-adv-x="1028" 
d="M961 395q0 -168 -130.5 -295t-306.5 -127q-180 0 -306 130t-126 309q0 125 76 254l72 92l112 110l-67 78l155 156l414 -432q107 -133 107 -275zM733 395q0 68 -33 113l-186 194q-102 -100 -166 -182l-24 -47l-17 -78q0 -47 51 -125q68 -77 166 -77q101 0 162 71
q47 58 47 131zM758 1396l-458 -166l-31 101l104 39q-38 33 -50.5 74t-5.5 81.5t31 78t59 64t79 38.5t91 2q28 -5 51.5 -19.5t49.5 -37.5l-66 -96q-25 25 -43.5 30t-34.5 7q-14 1 -30.5 -2t-30.5 -11.5t-24.5 -21.5t-12.5 -31q-2 -16 3 -29t14.5 -22.5t23 -15.5t28.5 -7
q64 -7 208 50z" />
    <glyph glyph-name="uni040d" unicode="&#x400;" horiz-adv-x="1149" 
 />
    <glyph glyph-name="uni0450" unicode="&#x45d;" horiz-adv-x="1154" 
 />
    <glyph glyph-name="uni045D" unicode="&#x40d;" horiz-adv-x="1372" 
 />
    <glyph glyph-name="afii59759" unicode="&#xe4f;" horiz-adv-x="1233" 
d="M616 983q207 0 353.5 -146.5t146.5 -353.5q0 -206 -146.5 -352.5t-353.5 -146.5q-206 0 -352.5 146.5t-146.5 352.5q0 207 146.5 353.5t352.5 146.5zM616 147q142 0 233 95t91 241t-91 241t-233 95q-141 0 -232 -95t-91 -241t91 -241t232 -95zM616 598q48 0 81.5 -33
t33.5 -80t-33.5 -80.5t-81.5 -33.5q-47 0 -80.5 33.5t-33.5 80.5t33.5 80t80.5 33z" />
    <glyph glyph-name="afii59760" unicode="&#xe50;" horiz-adv-x="1233" 
d="M616 924q218 0 359 -129.5t141 -341.5q0 -211 -141 -340t-359 -129q-217 0 -358 129t-141 340q0 212 141 341.5t358 129.5zM616 150q149 0 236.5 81t87.5 222t-88 224t-236 83q-147 0 -235 -83t-88 -224q0 -143 88.5 -223t234.5 -80z" />
    <glyph glyph-name="glyph279" 
d="M36 1831v-968h-72v968h72zM36 543v-966h-72v966h72z" />
    <glyph glyph-name="glyph280" 
d="M-234 -423v71h198v2112h-198v71h468v-71h-198v-2112h198v-71h-468z" />
    <glyph glyph-name="glyph281" 
d="M224 1646l-188 -142v-1927h-72v2254z" />
    <glyph glyph-name="glyph282" 
d="M36 1831v-2254h-72v1927l-188 142z" />
    <glyph glyph-name="glyph283" 
d="M36 1831v-2183h198v-71h-270v2254h72z" />
    <glyph glyph-name="glyph284" 
d="M224 1646l-188 -142v-1927h-72v1927l-188 137l224 190z" />
    <glyph glyph-name="uni0679" unicode="&#x679;" horiz-adv-x="1912" 
 />
    <glyph glyph-name="uni0688" unicode="&#x688;" horiz-adv-x="590" 
 />
    <glyph glyph-name="uni0691" unicode="&#x691;" horiz-adv-x="643" 
 />
    <glyph glyph-name="uni06C1" unicode="&#x6c1;" horiz-adv-x="1066" 
 />
    <glyph glyph-name="uni06C2" unicode="&#x6c2;" horiz-adv-x="1066" 
 />
    <glyph glyph-name="uni06C3" unicode="&#x6c3;" horiz-adv-x="1066" 
 />
    <glyph glyph-name="uni06D2" unicode="&#x6d2;" horiz-adv-x="1872" 
 />
    <glyph glyph-name="uni06D3" unicode="&#x6d3;" horiz-adv-x="1872" 
 />
    <glyph glyph-name="uni06D4" unicode="&#x6d4;" horiz-adv-x="524" 
 />
    <glyph glyph-name="uni0670" unicode="&#x670;" 
d="M57 3h-104v352h104v-352z" />
    <glyph glyph-name="glyph298" horiz-adv-x="666" 
d="M360 1529q39 29 73.5 35t61 -7.5t42.5 -45.5t17 -78l-2 -99h-399v73h68zM321 1407h159v37q-2 35 -24.5 45.5t-60.5 -17.5z" />
    <glyph glyph-name="glyph299" horiz-adv-x="1700" 
d="M1622 37l-4 -84l-6 -98q-33 -224 -209 -359q-160 -114 -346 -114h-348q-236 0 -392.5 176t-156.5 426v312h213v-321q0 -161 100 -268.5t254 -107.5h317q148 0 254.5 106.5t106.5 293.5q-320 -9 -406 17q-182 62 -182 308q0 163 115 268q106 94 260 94q170 0 285 -108
q67 -64 106 -152t39 -188v-201zM1403 223q0 106 -76 178q-59 58 -147 58q-56 0 -115 -29q-47 -39 -47 -92q0 -88 58.5 -107.5t326.5 -7.5z" />
    <glyph glyph-name="glyph300" horiz-adv-x="267" 
 />
    <glyph glyph-name="uni0654" unicode="&#x654;" 
d="M300 1469l-458 -166l-31 101l104 39q-38 33 -50.5 74t-5.5 81.5t31 78t59 64t79 38.5t91 2q28 -5 51.5 -19.5t49.5 -37.5l-66 -96q-25 25 -43.5 30t-34.5 7q-14 1 -30.5 -2t-30.5 -11.5t-24.5 -21.5t-12.5 -31q-2 -16 3 -29t14.5 -22.5t23 -15.5t28.5 -7q64 -7 208 50z
" />
    <glyph glyph-name="uni0655" unicode="&#x655;" 
d="M298 1468l-458 -166l-31 101l104 39q-38 33 -50.5 74t-5.5 81.5t31 78t59 64t79 38.5t91 2q28 -5 51.5 -19.5t49.5 -37.5l-66 -96q-25 25 -43.5 30t-34.5 7q-14 1 -30.5 -2t-30.5 -11.5t-24.5 -21.5t-12.5 -31q-2 -16 3 -29t14.5 -22.5t23 -15.5t28.5 -7q64 -7 208 50z
" />
    <glyph glyph-name="uni0671" unicode="&#x671;" horiz-adv-x="568" 
d="M477 0h-227v1466h227v-1466zM339 1802q39 29 73.5 35t61 -7.5t42.5 -45.5t17 -78l-2 -99h-399v73h68zM300 1680h159v37q-2 35 -24.5 45.5t-60.5 -17.5z" />
    <glyph glyph-name="uni0672" unicode="&#x672;" horiz-adv-x="568" 
d="M477 0h-227v1466h227v-1466zM597 1724l-458 -166l-31 101l104 39q-38 33 -50.5 74t-5.5 81.5t31 78t59 64t79 38.5t91 2q28 -5 51.5 -19.5t49.5 -37.5l-66 -96q-25 25 -43.5 30t-34.5 7q-14 1 -30.5 -2t-30.5 -11.5t-24.5 -21.5t-12.5 -31q-2 -16 3 -29t14.5 -22.5
t23 -15.5t28.5 -7q64 -7 208 50z" />
    <glyph glyph-name="uni0672.fina" horiz-adv-x="655" 
d="M690 0q-299 0 -409 111q-78 86 -78 241v1082h229v-985q0 -154 41 -188t217 -34v-227zM297 1755q39 29 73.5 35t61 -7.5t42.5 -45.5t17 -78l-2 -99h-399v73h68zM258 1633h159v37q-2 35 -24.5 45.5t-60.5 -17.5z" />
    <glyph glyph-name="uni0673" unicode="&#x673;" horiz-adv-x="568" 
d="M477 0h-227v1466h227v-1466zM599 -458l-458 -166l-31 101l104 39q-38 33 -50.5 74t-5.5 81.5t31 78t59 64t79 38.5t91 2q28 -5 51.5 -19.5t49.5 -37.5l-66 -96q-25 25 -43.5 30t-34.5 7q-14 1 -30.5 -2t-30.5 -11.5t-24.5 -21.5t-12.5 -31q-2 -16 3 -29t14.5 -22.5
t23 -15.5t28.5 -7q64 -7 208 50z" />
    <glyph glyph-name="uni0673.fina" horiz-adv-x="655" 
d="M690 0q-299 0 -409 111q-78 86 -78 241v1082h229v-985q0 -154 41 -188t217 -34v-227zM574 -450l-458 -166l-31 101l104 39q-38 33 -50.5 74t-5.5 81.5t31 78t59 64t79 38.5t91 2q28 -5 51.5 -19.5t49.5 -37.5l-66 -96q-25 25 -43.5 30t-34.5 7q-14 1 -30.5 -2
t-30.5 -11.5t-24.5 -21.5t-12.5 -31q-2 -16 3 -29t14.5 -22.5t23 -15.5t28.5 -7q64 -7 208 50z" />
    <glyph glyph-name="uni0675" unicode="&#x675;" horiz-adv-x="397" 
d="M477 0h-227v1466h227v-1466zM616 2362l-458 -166l-31 101l104 39q-38 33 -50.5 74t-5.5 81.5t31 78t59 64t79 38.5t91 2q28 -5 51.5 -19.5t49.5 -37.5l-66 -96q-25 25 -43.5 30t-34.5 7q-14 1 -30.5 -2t-30.5 -11.5t-24.5 -21.5t-12.5 -31q-2 -16 3 -29t14.5 -22.5
t23 -15.5t28.5 -7q64 -7 208 50z" />
    <glyph glyph-name="uni0676" unicode="&#x676;" horiz-adv-x="1054" 
d="M989 -31q0 -198 -167 -372.5t-406 -174.5h-291l-31 226h287q170 0 276.5 106.5t106.5 245.5q-264 0 -406 72q-186 90 -186 358q0 289 139 412q90 73 273 73q258 0 356 -215q49 -129 49 -444v-287zM764 227v240q0 219 -180 219q-84 0 -127 -45q-45 -53 -45 -199
q0 -129 66.5 -172t285.5 -43zM838 1202l-458 -166l-31 101l104 39q-38 33 -50.5 74t-5.5 81.5t31 78t59 64t79 38.5t91 2q28 -5 51.5 -19.5t49.5 -37.5l-66 -96q-25 25 -43.5 30t-34.5 7q-14 1 -30.5 -2t-30.5 -11.5t-24.5 -21.5t-12.5 -31q-2 -16 3 -29t14.5 -22.5
t23 -15.5t28.5 -7q64 -7 208 50z" />
    <glyph glyph-name="uni0677" unicode="&#x677;" horiz-adv-x="588" 
 />
    <glyph glyph-name="uni0678" unicode="&#x678;" horiz-adv-x="1636" 
d="M1561 -74q0 -153 -43 -239q-25 -99 -129 -197q-162 -156 -392 -156h-352q-223 0 -383 177.5t-160 414.5v469h215v-499q0 -150 132 -261q108 -77 241 -77h297q121 0 230 80q120 102 120 231q0 104 -86 131t-440 27v389q0 168 119 288.5t282 120.5h279l10 -213h-280
q-115 0 -170 -112q-27 -90 -27 -260q307 0 416 -54q121 -65 121 -260zM697 824l-458 -166l-31 101l104 39q-38 33 -50.5 74t-5.5 81.5t31 78t59 64t79 38.5t91 2q28 -5 51.5 -19.5t49.5 -37.5l-66 -96q-25 25 -43.5 30t-34.5 7q-14 1 -30.5 -2t-30.5 -11.5t-24.5 -21.5
t-12.5 -31q-2 -16 3 -29t14.5 -22.5t23 -15.5t28.5 -7q64 -7 208 50z" />
    <glyph glyph-name="uni067A" unicode="&#x67a;" horiz-adv-x="1912" 
 />
    <glyph glyph-name="uni067B" unicode="&#x67b;" horiz-adv-x="1912" 
 />
    <glyph glyph-name="uni067C" unicode="&#x67c;" horiz-adv-x="1912" 
 />
    <glyph glyph-name="uni067D" unicode="&#x67d;" horiz-adv-x="1912" 
 />
    <glyph glyph-name="uni067F" unicode="&#x67f;" horiz-adv-x="1912" 
 />
    <glyph glyph-name="uni0680" unicode="&#x680;" horiz-adv-x="1912" 
 />
    <glyph glyph-name="uni0681" unicode="&#x681;" horiz-adv-x="1098" 
 />
    <glyph glyph-name="uni0682" unicode="&#x682;" horiz-adv-x="1098" 
 />
    <glyph glyph-name="uni0683" unicode="&#x683;" horiz-adv-x="1098" 
 />
    <glyph glyph-name="uni0684" unicode="&#x684;" horiz-adv-x="1098" 
 />
    <glyph glyph-name="uni0685" unicode="&#x685;" horiz-adv-x="1098" 
 />
    <glyph glyph-name="uni0687" unicode="&#x687;" horiz-adv-x="1098" 
 />
    <glyph glyph-name="uni0689" unicode="&#x689;" horiz-adv-x="520" 
 />
    <glyph glyph-name="uni068b" unicode="&#x68b;" horiz-adv-x="612" 
 />
    <glyph glyph-name="uni068c" unicode="&#x68c;" horiz-adv-x="520" 
 />
    <glyph glyph-name="uni068d" unicode="&#x68d;" horiz-adv-x="520" 
 />
    <glyph glyph-name="uni068e" unicode="&#x68e;" horiz-adv-x="520" 
 />
    <glyph glyph-name="uni068F" unicode="&#x68f;" horiz-adv-x="520" 
 />
    <glyph glyph-name="uni0690" unicode="&#x690;" horiz-adv-x="520" 
 />
    <glyph glyph-name="uni0692" unicode="&#x692;" horiz-adv-x="643" 
 />
    <glyph glyph-name="uni0693" unicode="&#x693;" horiz-adv-x="643" 
 />
    <glyph glyph-name="uni0694" unicode="&#x694;" horiz-adv-x="453" 
 />
    <glyph glyph-name="uni0695" unicode="&#x695;" horiz-adv-x="446" 
 />
    <glyph glyph-name="uni0696" unicode="&#x696;" horiz-adv-x="450" 
 />
    <glyph glyph-name="uni0697" unicode="&#x697;" horiz-adv-x="468" 
 />
    <glyph glyph-name="uni0699" unicode="&#x699;" horiz-adv-x="465" 
 />
    <glyph glyph-name="uni069A" unicode="&#x69a;" horiz-adv-x="1088" 
 />
    <glyph glyph-name="uni069B" unicode="&#x69b;" horiz-adv-x="1090" 
 />
    <glyph glyph-name="uni069C" unicode="&#x69c;" horiz-adv-x="1102" 
 />
    <glyph glyph-name="uni069D" unicode="&#x69d;" horiz-adv-x="1259" 
 />
    <glyph glyph-name="uni069E" unicode="&#x69e;" horiz-adv-x="1262" 
 />
    <glyph glyph-name="uni069F" unicode="&#x69f;" horiz-adv-x="645" 
 />
    <glyph glyph-name="uni06A0" unicode="&#x6a0;" horiz-adv-x="818" 
 />
    <glyph glyph-name="uni06A2" unicode="&#x6a2;" horiz-adv-x="1421" 
 />
    <glyph glyph-name="uni06A3" unicode="&#x6a3;" horiz-adv-x="1420" 
 />
    <glyph glyph-name="uni06A5" unicode="&#x6a5;" horiz-adv-x="1470" 
 />
    <glyph glyph-name="uni06A6" unicode="&#x6a6;" horiz-adv-x="2145" 
 />
    <glyph glyph-name="uni06A7" unicode="&#x6a7;" horiz-adv-x="1522" 
 />
    <glyph glyph-name="uni06A8" unicode="&#x6a8;" horiz-adv-x="939" 
 />
    <glyph glyph-name="uni06AA" unicode="&#x6aa;" horiz-adv-x="2222" 
 />
    <glyph glyph-name="uni06AB.001" unicode="&#x6ab;" horiz-adv-x="852" 
 />
    <glyph glyph-name="uni06AB" unicode="&#x6ac;" horiz-adv-x="845" 
 />
    <glyph glyph-name="uni06AD" unicode="&#x6ad;" horiz-adv-x="1275" 
 />
    <glyph glyph-name="uni06AE" unicode="&#x6ae;" horiz-adv-x="806" 
 />
    <glyph glyph-name="uni06B0" unicode="&#x6b0;" horiz-adv-x="896" 
 />
    <glyph glyph-name="uni06B1" unicode="&#x6b1;" horiz-adv-x="1158" 
 />
    <glyph glyph-name="uni06B2" unicode="&#x6b2;" horiz-adv-x="815" 
 />
    <glyph glyph-name="uni06B3" unicode="&#x6b3;" horiz-adv-x="1158" 
 />
    <glyph glyph-name="uni06B4" unicode="&#x6b4;" horiz-adv-x="1158" 
 />
    <glyph glyph-name="uni06B5" unicode="&#x6b5;" horiz-adv-x="887" 
 />
    <glyph glyph-name="uni06B6" unicode="&#x6b6;" horiz-adv-x="1365" 
 />
    <glyph glyph-name="uni06B7" unicode="&#x6b7;" horiz-adv-x="1365" 
 />
    <glyph glyph-name="uni06B8" unicode="&#x6b8;" horiz-adv-x="1365" 
 />
    <glyph glyph-name="uni06BB" unicode="&#x6bb;" horiz-adv-x="925" 
 />
    <glyph glyph-name="uni06BC" unicode="&#x6bc;" horiz-adv-x="1309" 
 />
    <glyph glyph-name="uni06BD" unicode="&#x6bd;" horiz-adv-x="936" 
 />
    <glyph glyph-name="uni06BF" unicode="&#x6bf;" horiz-adv-x="1247" 
 />
    <glyph glyph-name="uni06C4" unicode="&#x6c4;" horiz-adv-x="448" 
 />
    <glyph glyph-name="uni06C5" unicode="&#x6c5;" horiz-adv-x="854" 
 />
    <glyph glyph-name="uni06C6" unicode="&#x6c6;" horiz-adv-x="388" 
 />
    <glyph glyph-name="uni06C7" unicode="&#x6c7;" horiz-adv-x="854" 
 />
    <glyph glyph-name="uni06C8" unicode="&#x6c8;" horiz-adv-x="588" 
 />
    <glyph glyph-name="uni06C9" unicode="&#x6c9;" horiz-adv-x="588" 
 />
    <glyph glyph-name="uni06CA" unicode="&#x6ca;" horiz-adv-x="401" 
 />
    <glyph glyph-name="uni06CB" unicode="&#x6cb;" horiz-adv-x="773" 
 />
    <glyph glyph-name="uni06CD" unicode="&#x6cd;" horiz-adv-x="1892" 
 />
    <glyph glyph-name="uni06CE" unicode="&#x6ce;" horiz-adv-x="934" 
 />
    <glyph glyph-name="uni06CF" unicode="&#x6cf;" horiz-adv-x="570" 
 />
    <glyph glyph-name="uni06D0" unicode="&#x6d0;" horiz-adv-x="1272" 
 />
    <glyph glyph-name="uni06D1" unicode="&#x6d1;" horiz-adv-x="985" 
 />
    <glyph glyph-name="uni06DD" unicode="&#x6dd;" horiz-adv-x="2300" 
d="M2250 715q0 -246 -104 -466q-100 -214 -279 -368q3 -14 3 -29q0 -55 -39 -93.5t-94 -38.5q-40 0 -73 22q-240 -127 -515 -127q-273 0 -513 127q-33 -22 -73 -22q-55 0 -94 38.5t-39 93.5q0 15 3 29q-179 154 -279 368q-104 220 -104 466t104 466q100 213 279 367
q-3 14 -3 29q0 55 39 93.5t94 38.5q40 0 73 -22q240 127 515 127q273 0 513 -127q33 22 73 22q55 0 94 -38.5t39 -93.5q0 -15 -3 -29q179 -154 279 -367q104 -220 104 -466zM1816 1576q0 33 -23 56t-55 23t-55.5 -23.5t-23.5 -55.5t23 -55t56 -23q32 0 55 23t23 55z
M1602 1595q-212 109 -451 109q-241 0 -453 -109h904zM641 1576q0 32 -23.5 55.5t-55.5 23.5t-55 -23t-23 -56q0 -32 23 -55t55 -23q33 0 56 23t23 55zM2140 714q0 219 -92 417q-88 190 -247 329q-29 -16 -64 -16q-56 0 -95 41h-984q-39 -41 -95 -41q-35 0 -64 16
q-159 -139 -247 -329q-92 -198 -92 -417q0 -449 339 -745q29 16 64 16q56 0 95 -41h984q39 41 95 41q35 0 64 -16q339 296 339 745zM1816 -147q0 32 -23 55t-55 23q-33 0 -56 -23t-23 -55t23.5 -55.5t55.5 -23.5t55 23t23 56zM1602 -166h-904q212 -109 453 -109
q239 0 451 109zM641 -147q0 32 -23 55t-56 23q-32 0 -55 -23t-23 -55q0 -33 23 -56t55 -23t55.5 23.5t23.5 55.5z" />
    <glyph glyph-name="uni06DE" unicode="&#x6de;" horiz-adv-x="2221" 
d="M2171 750l-310 -311v-439h-440l-310 -311l-311 311h-439v439l-311 311l311 311v439h439l311 311l310 -311h440v-439zM436 364v-289h289zM725 1425h-289v-289zM1786 1136v289h-290zM1786 75v289l-290 -289h290zM906 0l205 -205l204 205h-409zM361 955l-205 -205l205 -205
v410zM1315 1500l-204 205l-205 -205h409zM1786 1030l-396 395h-559l-395 -395v-560l395 -395h559l396 395v560zM2065 750l-204 205v-410zM1328 750q0 -90 -63.5 -154t-153.5 -64t-154 64t-64 154t64 153.5t154 63.5t153.5 -63.5t63.5 -153.5zM1253 750q0 59 -42 100.5
t-101 41.5t-101 -41.5t-42 -100.5t42 -101t101 -42t101 42t42 101z" />
    <glyph glyph-name="uni06DF" unicode="&#x6df;" 
d="M75 1429q0 -31 -22 -53t-53 -22t-53 22t-22 53t22 53t53 22t53 -22t22 -53z" />
    <glyph glyph-name="uni06E9" unicode="&#x6e9;" horiz-adv-x="1229" 
d="M1179 0h-1129l228 261v588l-228 259l564 568l565 -568l-228 -259v-588zM1101 1108l-487 490l-486 -490l210 -237v-632l-160 -183h873l-160 183v632zM995 1108l-150 -171v-806h-461v806l-150 171l380 381zM922 1108l-308 308l-307 -308l126 -140v-782h363v782zM833 1108
l-88 -97v-744h-261v744l-88 97l218 223zM780 1108l-166 170l-165 -170l74 -81v-718h182v718z" />
    <glyph glyph-name="uni06EA" unicode="&#x6ea;" 
d="M168 -176l-169 -168l-167 167l169 168zM104 -176l-104 104l-104 -105l104 -104z" />
    <glyph glyph-name="uni06EB" unicode="&#x6eb;" 
d="M168 1522l-169 -168l-167 167l169 168zM104 1522l-104 104l-104 -105l104 -104z" />
    <glyph glyph-name="uni06FA" unicode="&#x6fa;" horiz-adv-x="1647" 
 />
    <glyph glyph-name="uni06FB" unicode="&#x6fb;" horiz-adv-x="1774" 
 />
    <glyph glyph-name="uni06FC" unicode="&#x6fc;" horiz-adv-x="1413" 
 />
    <glyph glyph-name="uni06FD" unicode="&#x6fd;" horiz-adv-x="782" 
 />
    <glyph glyph-name="uni068A" unicode="&#x68a;" horiz-adv-x="520" 
 />
    <glyph glyph-name="uni0343" unicode="&#x343;" 
 />
    <glyph glyph-name="comma" unicode="," horiz-adv-x="259" 
d="M231 169l-157 -335h-83l95 335h145z" />
    <glyph glyph-name="afii57407" unicode="&#x61f;" horiz-adv-x="1028" 
d="M940 983h-221q0 285 -203 285q-94 0 -143 -62q-41 -43 -41 -104q0 -64 26 -109l115 -125q98 -98 129 -168l27 -116l12 -154h-219q0 135 -37 211q-16 31 -109 127q-104 100 -137 158q-41 71 -41 166q0 178 117 278t293 100q172 0 289 -92q88 -69 118 -172l15 -94zM676 139
q0 -51 -43 -102q-49 -37 -109 -37q-57 0 -108 37q-43 41 -43 102q0 127 151 127q152 0 152 -127z" />
    <glyph glyph-name="afii57392" unicode="0" horiz-adv-x="754" 
d="M141 629q0 48 19 91t52 75t77.5 50.5t95.5 18.5q49 0 93 -18.5t77 -50.5t52.5 -75t19.5 -91q0 -50 -19.5 -93.5t-52.5 -76t-77 -51.5t-93 -19q-51 0 -95.5 19t-77.5 51.5t-52 76t-19 93.5zM262 627q0 -25 9.5 -46.5t26 -37t38.5 -24.5t47 -9t47.5 9t38.5 24.5t25.5 37
t9.5 46.5q0 24 -9.5 45.5t-25.5 37.5t-38.5 25.5t-47.5 9.5t-47 -9.5t-38.5 -25.5t-26 -37.5t-9.5 -45.5z" />
    <glyph glyph-name="afii57393" unicode="1" horiz-adv-x="690" 
d="M494 0h-224v700q0 168 -24 357q-17 96 -37 176q-10 35 -21.5 84t-27.5 98l219 72l78 -311q37 -250 37 -476v-700z" />
    <glyph glyph-name="afii57394" unicode="2" horiz-adv-x="1241" 
d="M1081 1096q11 -183 -122.5 -259.5t-215.5 -62.5q-88 -14 -206 57l4 -827h-228v666q0 204 -24.5 399t-81.5 346l219 76l90 -379q35 -141 170 -141q72 0 124 48t52 134l-35 270l76 23l137 47q45 -313 41 -397z" />
    <glyph glyph-name="afii57395" unicode="3" horiz-adv-x="1565" 
d="M1473 1118q0 -121 -91 -229q-102 -94 -237 -94q-184 -15 -283 155q-51 -164 -207.5 -173t-255.5 65l2 -838h-225v666q0 426 -113 745l224 76l88 -379q37 -141 170 -141q67 0 125.5 48t58.5 134l-47 270l217 78q51 -264 51 -403l-4 -60q58 -75 141 -75q68 0 117 49t49 141
l-36 270l217 68l36 -309z" />
    <glyph glyph-name="afii62843" unicode="4" horiz-adv-x="1534" 
d="M1366 848q-125 -53 -238 -84q-47 -10 -107 -20.5t-116 -10.5q-198 0 -405 92v-821h-219v682q0 162 -27 344q-8 47 -11 85t-24 97l-51 203l217 76l61 -248l41 -199l115 -61q0 145 21.5 228t83.5 157q114 133 303 133q143 0 288 -71l-77 -193l-4 -6q-93 69 -189 69
q-113 0 -186 -94q-11 -24 -25 -41q-20 -41 -20 -80l10 -55q31 -98 164 -98q131 0 323 102z" />
    <glyph glyph-name="afii62844" unicode="5" horiz-adv-x="1778" 
d="M1622 412q0 -172 -131 -297q-125 -105 -309 -105q-172 0 -289 88q-160 -92 -305 -92q-168 0 -273.5 122t-105.5 312q0 287 227 564l246 305l-88 63l145 176q883 -663 883 -1136zM1384 459q0 86 -63 207q-121 219 -469 508q-403 -424 -403 -701q0 -100 51 -159.5
t133 -59.5q94 0 147 74q37 53 37 129l-10 80h227l10 -37l5 -47l-5 -84q0 -27 -20 -72q72 -41 150 -41q131 0 188 98q22 52 22 105z" />
    <glyph glyph-name="afii62845" unicode="6" horiz-adv-x="1331" 
d="M1118 899q-69 -63 -178 -186l-190 -236q-185 -244 -334 -504l-199 125q107 199 416 609q-217 0 -338 129q-109 110 -109 276q0 219 183 358q104 60 215 60q133 0 290 -80l-69 -207q-103 57 -187 57q-108 0 -176 -98q-26 -43 -26 -90t24 -88q47 -98 174 -98q68 0 150 27.5
t168 84.5z" />
    <glyph glyph-name="afii57399" unicode="7" horiz-adv-x="1534" 
d="M156 1399l104 47l82 55q209 -348 292 -544.5t167 -510.5q78 345 145.5 488t121.5 257t169 310l88 -55l98 -51q-247 -406 -365 -781.5t-173 -599.5h-176q-193 824 -553 1385z" />
    <glyph glyph-name="afii57400" unicode="8" horiz-adv-x="1534" 
d="M1409 115l-104 -47l-82 -54q-209 348 -292 544t-167 509q-78 -344 -147.5 -500.5t-122 -257t-166.5 -295.5l-88 54l-99 51q248 405 366 782t173 600h174q195 -825 555 -1386z" />
    <glyph glyph-name="afii57401" unicode="9" horiz-adv-x="1270" 
d="M1014 4h-223v782l-136 -43q-280 -51 -389 88q-84 95 -84 240q0 229 123 329.5t254 103.5t249 -64.5t157 -227t44 -255t5 -209.5v-744zM772 1018q-8 115 -39 183.5t-141.5 73.5t-156.5 -58.5t-27.5 -159.5t136.5 -105.5t228 66.5z" />
    <glyph glyph-name="afii57392.001" unicode="&#x660;" horiz-adv-x="754" 
d="M141 629q0 48 19 91t52 75t77.5 50.5t95.5 18.5q49 0 93 -18.5t77 -50.5t52.5 -75t19.5 -91q0 -50 -19.5 -93.5t-52.5 -76t-77 -51.5t-93 -19q-51 0 -95.5 19t-77.5 51.5t-52 76t-19 93.5zM262 627q0 -25 9.5 -46.5t26 -37t38.5 -24.5t47 -9t47.5 9t38.5 24.5t25.5 37
t9.5 46.5q0 24 -9.5 45.5t-25.5 37.5t-38.5 25.5t-47.5 9.5t-47 -9.5t-38.5 -25.5t-26 -37.5t-9.5 -45.5z" />
    <glyph glyph-name="afii57393.001" unicode="&#x661;" horiz-adv-x="690" 
d="M494 0h-224v700q0 168 -24 357q-17 96 -37 176q-10 35 -21.5 84t-27.5 98l219 72l78 -311q37 -250 37 -476v-700z" />
    <glyph glyph-name="afii57394.001" unicode="&#x662;" horiz-adv-x="1241" 
d="M1081 1096q11 -183 -122.5 -259.5t-215.5 -62.5q-88 -14 -206 57l4 -827h-228v666q0 204 -24.5 399t-81.5 346l219 76l90 -379q35 -141 170 -141q72 0 124 48t52 134l-35 270l76 23l137 47q45 -313 41 -397z" />
    <glyph glyph-name="afii57395.001" unicode="&#x663;" horiz-adv-x="1565" 
d="M1473 1118q0 -121 -91 -229q-102 -94 -237 -94q-184 -15 -283 155q-51 -164 -207.5 -173t-255.5 65l2 -838h-225v666q0 426 -113 745l224 76l88 -379q37 -141 170 -141q67 0 125.5 48t58.5 134l-47 270l217 78q51 -264 51 -403l-4 -60q58 -75 141 -75q68 0 117 49t49 141
l-36 270l217 68l36 -309z" />
    <glyph glyph-name="afii57396" unicode="&#x664;" horiz-adv-x="1315" 
d="M623 981q84 0 280 106l78 -188q-190 -94 -313 -161.5t-198 -122t-106.5 -98.5t-35.5 -95q0 -60 46 -122t140 -81l549 -10l-14 -209l-494 6q-123 -10 -217 29t-151.5 106.5t-80 157.5t1 184.5t93 187.5t190.5 165q-78 59 -143.5 155t-65.5 205v21q0 71 29 134.5t96 121.5
v4q129 108 277 108q145 0 315 -72q-6 -12 -15.5 -37.5t-29.5 -86.5q-8 -17 -10 -24t-8 -34q-82 31 -134.5 42t-87.5 11q-79 0 -140.5 -48t-61.5 -136q0 -45 14 -88q27 -57 73 -93t115 -38h9v0z" />
    <glyph glyph-name="afii57397" unicode="&#x665;" horiz-adv-x="1591" 
d="M1409 385q0 -158 -94 -259t-247 -122.5t-219.5 -24t-177 3t-237.5 45.5t-225 136q-57 86 -63.5 195.5t28.5 211t96.5 210t135 210t135.5 168.5l6 15l-6 47l-11 20l-26 16l110 138q795 -600 795 -1010zM1169 430q0 115 -105.5 258t-344.5 340q-101 -119 -165.5 -207
t-107.5 -169t-57 -161.5t12 -168.5q41 -58 124 -90.5t241 -32.5q160 0 262 28q141 41 141 203z" />
    <glyph glyph-name="afii57398" unicode="&#x666;" horiz-adv-x="1223" 
d="M750 1049q-127 -66 -251 -60t-217.5 66.5t-143.5 168t-25 242.5h245q-28 -180 102 -219t232.5 14.5t155.5 239.5l223 -31q-41 -114 -65.5 -278t-39 -343t-19.5 -355.5t-5 -311.5v-94q0 -31 4 -94l-229 12q-4 47 -6 85t-3 67.5t-1 60.5v166q2 88 9 260t34 404z" />
    <glyph glyph-name="afii57399.001" unicode="&#x667;" horiz-adv-x="1534" 
d="M156 1399l104 47l82 55q209 -348 292 -544.5t167 -510.5q78 345 145.5 488t121.5 257t169 310l88 -55l98 -51q-247 -406 -365 -781.5t-173 -599.5h-176q-193 824 -553 1385z" />
    <glyph glyph-name="afii57400.001" unicode="&#x668;" horiz-adv-x="1534" 
d="M1409 115l-104 -47l-82 -54q-209 348 -292 544t-167 509q-78 -344 -147.5 -500.5t-122 -257t-166.5 -295.5l-88 54l-99 51q248 405 366 782t173 600h174q195 -825 555 -1386z" />
    <glyph glyph-name="afii57401.001" unicode="&#x669;" horiz-adv-x="1270" 
d="M1014 4h-223v782l-136 -43q-280 -51 -389 88q-84 95 -84 240q0 229 123 329.5t254 103.5t249 -64.5t157 -227t44 -255t5 -209.5v-744zM772 1018q-8 115 -39 183.5t-141.5 73.5t-156.5 -58.5t-27.5 -159.5t136.5 -105.5t228 66.5z" />
    <glyph glyph-name="guillemotleft" unicode="&#xab;" horiz-adv-x="840" 
d="M483 411q0 79 15 153.5t62.5 155t164.5 117.5q12 -6 -12 -52q-37 -79 -60 -175q-24 -94 -24 -204v-3q0 -110 24 -205q23 -95 60 -174q24 -46 12 -52q-117 36 -165 117q-47 80 -62 154.5t-15 154.5v13zM203 411q0 79 15 153.5t62.5 155t164.5 117.5q12 -6 -12 -52
q-37 -79 -60 -175q-24 -94 -24 -204v-3q0 -110 24 -205q23 -95 60 -174q24 -46 12 -52q-117 36 -165 117q-47 80 -62 154.5t-15 154.5v13z" />
    <glyph glyph-name="guillemotright" unicode="&#xbb;" horiz-adv-x="825" 
d="M457 398q0 -80 -15 -154.5t-62 -154.5q-48 -81 -165 -117q-12 6 12 52q37 79 60 174q24 95 24 205v3q0 110 -24 204q-23 96 -60 175q-24 46 -12 52q117 -37 164.5 -117.5t62.5 -155t15 -153.5v-13zM737 398q0 -80 -15 -154.5t-62 -154.5q-48 -81 -165 -117q-12 6 12 52
q37 79 60 174q24 95 24 205v3q0 110 -24 204q-23 96 -60 175q-24 46 -12 52q117 -37 164.5 -117.5t62.5 -155t15 -153.5v-13z" />
    <glyph glyph-name="quoteleft" unicode="&#x2018;" horiz-adv-x="516" 
d="M111 1104q4 92 65.5 181.5t136.5 125.5l43 -84q-20 -12 -51 -45.5t-47 -85.5q92 -41 90 -116q0 -23 -9.5 -44t-25 -37t-36.5 -25t-44 -9q-28 0 -50.5 12.5t-38.5 32t-24.5 44.5t-8.5 50z" />
    <glyph glyph-name="quoteright" unicode="&#x2019;" horiz-adv-x="575" 
d="M416 1276q-4 -92 -65.5 -181t-137.5 -126l-43 82q20 12 51 46t47 87q-92 39 -90 117q0 23 9 43.5t25 35.5t37 24t44 9q28 0 51 -12t39 -31t24.5 -44t8.5 -50z" />
    <glyph glyph-name="afii57451" unicode="&#x64b;" 
d="M-289 281l545 141v-98l-545 -139v96zM-289 101l545 141v-98l-545 -139v96z" />
    <glyph glyph-name="afii57454" unicode="&#x64e;" 
d="M-289 101l545 141v-98l-545 -139v96z" />
    <glyph glyph-name="afii57455" unicode="&#x64f;" 
d="M225 431q1 -132 -98 -198l-408 -231l-60 102l294 165q-92 48 -94 146q-2 70 41 126t121 71q81 8 143 -45t61 -136zM-31 423q0 -31 21 -52t52 -21q30 0 51.5 21t21.5 52q0 30 -21.5 51.5t-51.5 21.5q-31 0 -52 -21.5t-21 -51.5z" />
    <glyph glyph-name="afii57452" unicode="&#x64c;" 
d="M221 416q1 -132 -98 -198l-408 -231l-60 102q93 51 103 71q17 57 -36 62q-37 0 -123 -17l-15 106q262 49 274 -112l91 55q-92 48 -94 146q-2 70 41 126t121 71q81 8 143 -45t61 -136zM-35 408q0 -31 21 -52t52 -21q30 0 51.5 21t21.5 52q0 30 -21.5 51.5t-51.5 21.5
q-31 0 -52 -21.5t-21 -51.5z" />
    <glyph glyph-name="afii57456" unicode="&#x650;" 
d="M-289 101l545 141v-98l-545 -139v96z" />
    <glyph glyph-name="afii57457" unicode="&#x651;" 
d="M-252 278h96v-136q3 -31 53.5 -34t50.5 34v136h96v-136q0 -21 16 -31t51 -8t35 32v143h100v-131q-4 -66 -26 -89q-42 -48 -107 -46q-66 0 -113 46q-31 -51 -123 -51q-61 0 -95 37t-34 103v131z" />
    <glyph glyph-name="afii57458" unicode="&#x652;" 
d="M-228 245q0 51 17.5 95.5t48 77t72.5 52t91 19.5t91 -19.5t73 -52t48.5 -77t17.5 -95.5t-17.5 -95t-48.5 -75.5t-73 -50t-91 -18.5t-91 18.5t-72.5 50t-48 75.5t-17.5 95zM-120 241q0 -54 37 -92t88 -38q50 0 87 38t37 92q0 56 -37 95.5t-87 39.5q-51 0 -88 -39.5
t-37 -95.5z" />
    <glyph glyph-name="parenleft" unicode="(" horiz-adv-x="860" 
d="M455 -78q-333 440 -333 850q0 215 94 432q28 86 81.5 180.5t157.5 214.5h141q-74 -137 -122 -242.5t-68 -180.5q-64 -207 -64 -451q0 -367 256 -803h-143z" />
    <glyph glyph-name="parenright" unicode=")" horiz-adv-x="758" 
d="M122 -78q256 436 256 803q0 244 -64 451q-20 75 -68 180.5t-122 242.5h141q104 -120 157.5 -214.5t81.5 -180.5q94 -217 94 -432q0 -410 -333 -850h-143z" />
    <glyph glyph-name="exclam" unicode="!" horiz-adv-x="437" 
d="M397 109q0 -45 -32.5 -77.5t-77.5 -32.5t-77.5 32.5t-32.5 77.5t32.5 77t77.5 32t77.5 -32t32.5 -77zM397 325h-220v1131h220v-1131z" />
    <glyph glyph-name="afii64060" unicode="&#xfd3e;" horiz-adv-x="860" 
d="M455 -78q-333 440 -333 850q0 215 94 432q28 86 81.5 180.5t157.5 214.5h141q-74 -137 -122 -242.5t-68 -180.5q-64 -207 -64 -451q0 -367 256 -803h-143z" />
    <glyph glyph-name="afii64061" unicode="&#xfd3f;" horiz-adv-x="758" 
d="M122 -78q256 436 256 803q0 244 -64 451q-20 75 -68 180.5t-122 242.5h141q104 -120 157.5 -214.5t81.5 -180.5q94 -217 94 -432q0 -410 -333 -850h-143z" />
    <glyph glyph-name="uni25CC" unicode="&#x25cc;" horiz-adv-x="911" 
d="M771 629q0 -37 -37 -37q-39 0 -39 37t39 37q37 0 37 -37zM658 703q0 -37 -37 -37q-39 0 -39 37q0 39 39 39q37 0 37 -39zM847 516q0 -39 -39 -39q-37 0 -37 39q0 37 39 37q37 0 37 -37zM873 384q0 -37 -37 -37q-39 0 -39 37t39 37q37 0 37 -37zM525 731q0 -39 -37 -39
t-37 39q0 37 37 37t37 -37zM847 251q0 -37 -39 -37q-37 0 -37 37q0 39 37 39q39 0 39 -39zM394 703q0 -37 -38 -37q-37 0 -37 37q0 39 37 39q38 0 38 -39zM282 629q0 -37 -39 -37q-37 0 -37 35q0 39 37 39q39 0 39 -37zM771 138q0 -37 -37 -37t-37 37q0 39 37 39t37 -39z
M658 64q0 -37 -37 -37t-37 37q0 39 37 39t37 -39zM206 516q0 -39 -35 -39q-39 0 -39 39q0 37 37 37t37 -37zM180 384q0 -37 -37 -37q-39 0 -39 37t39 37q37 0 37 -37zM525 38q0 -39 -37 -39t-37 39q0 37 37 37t37 -37zM394 66q0 -39 -38 -39q-37 0 -37 37q0 39 37 39
q38 0 38 -37zM206 251q0 -37 -37 -37t-37 37q0 39 37 39t37 -39zM282 138q0 -37 -37 -37q-39 0 -39 37q0 39 37 39q39 0 39 -39z" />
    <glyph glyph-name="braceright" unicode="}" horiz-adv-x="547" 
d="M502 359q-63 -2 -101 -34t-52 -87q-12 -54 -15 -189q0 -133 -3 -175q-6 -50 -18.5 -85t-30.5 -60t-43 -40.5t-57 -24.5q-16 -4 -40.5 -6t-59.5 -2h-44v125h24q84 0 110 30q28 31 28 135q0 200 6 254q14 89 52.5 142t108.5 82q-93 46 -129 117q-38 71 -38 244q0 78 -1 124
t-2 62q-3 27 -10.5 45t-22.5 29t-40 16t-62 5h-24v127h44q39 0 67.5 -3.5t47.5 -9.5q51 -19 84 -59.5t44 -104.5q9 -62 9 -206q3 -144 15 -200q12 -54 51 -88q40 -31 102 -32v-131z" />
    <glyph glyph-name="afii59729" unicode="&#xe30;" 
 />
    <glyph glyph-name="afii59728" unicode="&#xe31;" 
 />
    <glyph glyph-name="uni0400" unicode="&#x450;" horiz-adv-x="1149" 
 />
    <glyph glyph-name="uni06B9" unicode="&#x6b9;" 
 />
    <glyph glyph-name="uniF054" unicode="&#xf054;" horiz-adv-x="2587" 
 />
    <glyph glyph-name="uni0656" unicode="&#x656;" 
d="M57 3h-104v352h104v-352z" />
    <glyph glyph-name="Ocircumflex" unicode="&#xf0d4;" horiz-adv-x="571" 
 />
    <glyph glyph-name="E000" horiz-adv-x="1958" 
 />
    <glyph glyph-name="E001" horiz-adv-x="1365" 
 />
    <glyph glyph-name="E002" horiz-adv-x="975" 
 />
    <glyph glyph-name="E003" 
 />
    <glyph glyph-name="E004" 
 />
    <glyph glyph-name="E005" horiz-adv-x="476" 
d="M476 0h-545v216h545v-216z" />
    <glyph glyph-name="uni06D6" unicode="&#x6d6;" 
 />
    <glyph glyph-name="uni06D7" unicode="&#x6d7;" 
 />
    <glyph glyph-name="uni06D8" unicode="&#x6d8;" 
 />
    <glyph glyph-name="uni06D9" unicode="&#x6d9;" 
 />
    <glyph glyph-name="uni06DA" unicode="&#x6da;" 
 />
    <glyph glyph-name="uni06DB" unicode="&#x6db;" 
 />
    <glyph glyph-name="uni06DC" unicode="&#x6dc;" 
 />
    <glyph glyph-name="uni06E8" unicode="&#x6e8;" 
 />
    <glyph glyph-name="uni06EC" unicode="&#x6ed;" 
 />
    <glyph glyph-name="afii57470" unicode="&#x6be;" horiz-adv-x="1455" 
d="M1384 301q0 -84 -57 -186q-127 -207 -313 -207q-178 0 -473 174q-119 -62 -187 -68l-141 -10l-254 -4v227h317q-59 76 -94 158l-22 74l-4 82q0 159 106.5 266.5t253.5 107.5q154 0 281 -120l-148 151l172 156q563 -545 563 -801zM1149 287q0 141 -305 450q71 -80 71 -223
q0 -219 -137 -295q125 -69 219 -69q78 0 127 57q4 10 9.5 21.5t15.5 58.5zM696 526q0 68 -54 124.5t-142 56.5q-128 -18 -135 -166q0 -146 182 -217q149 65 149 202z" />
    <glyph glyph-name="uni06E0" unicode="&#x6e0;" 
 />
    <glyph glyph-name="uni06E1" unicode="&#x6e1;" 
 />
    <glyph glyph-name="uni06E2" unicode="&#x6e2;" 
 />
    <glyph glyph-name="uni06E3" unicode="&#x6e3;" 
 />
    <glyph glyph-name="uni06E4" unicode="&#x6e4;" 
 />
    <glyph glyph-name="uni06E5" unicode="&#x6e5;" 
 />
    <glyph glyph-name="uni06E6" unicode="&#x6e6;" 
 />
    <glyph glyph-name="uni06E7" unicode="&#x6e7;" 
 />
    <glyph glyph-name="at" unicode="@" horiz-adv-x="1663" 
d="M929 131q-54 -61 -117 -97t-129 -36q-70 0 -137 40.5t-110 128.5q-42 87 -42 190q0 63 15.5 126.5t48.5 127.5q68 128 163 192q48 32 95.5 47.5t93.5 15.5q69 0 132 -36t108 -111l28 125h143l-115 -536q-24 -113 -24 -125q0 -20 16 -36t39 -16q41 0 112 47
q46 32 82.5 76.5t62 96.5t39 109t13.5 114q0 66 -17 129t-51 119.5t-85.5 103.5t-119.5 82q-134 70 -298 70q-94 0 -181 -22.5t-162 -65.5t-136.5 -106t-103.5 -145q-86 -163 -86 -351q0 -198 84.5 -338.5t247.5 -208.5q164 -67 358 -67q105 0 193 19t158.5 51.5t124 76
t88.5 93.5h144q-20 -42 -56 -85.5t-84.5 -84.5t-108 -77t-128.5 -61q-68 -26 -150 -38t-179 -12q-133 -2 -251 25t-214 78.5t-167 125t-110 164.5q-34 75 -50.5 156.5t-16.5 169.5q0 98 19 190.5t61 181.5q99 217 277.5 332t435.5 115q199 0 356 -80.5t250 -241.5
q38 -71 57.5 -146t19.5 -156q0 -232 -164 -411q-144 -162 -318 -162q-55 0 -89 17.5t-50 47.5q-11 19 -15 69zM542 347q0 -54 14 -97t37.5 -73t54.5 -45.5t65 -15.5q45 0 94 26.5t94 80.5q23 27 42 61t32.5 72.5t21 80t7.5 82.5q0 54 -14.5 96.5t-39.5 72.5t-58.5 45.5
t-72.5 15.5q-51 0 -95.5 -26t-87.5 -85q-22 -29 -39.5 -65.5t-29.5 -75t-18.5 -77.5t-6.5 -73z" />
    <glyph glyph-name="A" unicode="A" horiz-adv-x="1093" 
d="M447 1173h167l480 -1173h-175l-137 355h-490l-130 -355h-164zM734 482l-123 324q-28 75 -49 135.5t-35 108.5q-11 -57 -26 -113t-35 -111l-130 -344h398z" />
    <glyph glyph-name="B" unicode="B" horiz-adv-x="1093" 
d="M120 1173h440q134 0 215.5 -36t126.5 -110q47 -72 47 -153q0 -75 -41 -142t-123 -108q107 -31 164 -105.5t57 -177.5q0 -42 -9.5 -81t-26 -73t-38.5 -62t-47 -48q-51 -38 -127.5 -57.5t-190.5 -19.5h-447v1173zM530 680q51 0 87.5 3.5t59.5 9.5q59 19 89 60t30 101
q0 59 -27.5 103t-80.5 61q-26 8 -70.5 12t-107.5 4h-235v-354h255zM567 138q38 0 64 1t43 5q37 7 68.5 21.5t54.5 38.5t36 58t13 79q0 66 -34 114t-94 67q-30 11 -72.5 15.5t-99.5 4.5h-271v-404h292z" />
    <glyph glyph-name="C" unicode="C" horiz-adv-x="1183" 
d="M1119 372q-24 -96 -69 -169.5t-107 -123t-140.5 -74.5t-169.5 -25q-188 0 -308 77t-183 223q-60 147 -60 314q-4 138 38 250t117.5 190t178 119.5t220.5 39.5q88 0 162.5 -23t133.5 -66.5t101 -107t65 -144.5l-152 -36q-42 128 -118.5 186t-194.5 58q-69 0 -126 -17
t-101.5 -48t-77 -75.5t-51.5 -98.5t-27.5 -110t-8.5 -115q0 -152 43.5 -262.5t136.5 -166.5q91 -54 198 -54q132 0 221.5 74.5t122.5 223.5z" />
    <glyph glyph-name="D" unicode="D" horiz-adv-x="1183" 
d="M126 1173h405q68 0 120 -4t88 -12q51 -13 93.5 -33.5t78.5 -52.5q94 -79 139.5 -199.5t45.5 -278.5q0 -103 -18 -185t-48.5 -146t-70 -109.5t-82.5 -74.5q-117 -78 -328 -78h-423v1173zM533 138q58 0 102.5 5.5t78.5 16.5t59.5 26t45.5 35q56 55 86 147.5t30 225.5
q0 93 -15.5 163.5t-43.5 121t-65.5 83t-81.5 49.5q-63 23 -202 23h-245v-896h251z" />
    <glyph glyph-name="E" unicode="E" horiz-adv-x="1093" 
d="M130 1173h848v-139h-693v-359h649v-137h-649v-400h719v-138h-874v1173z" />
    <glyph glyph-name="F" unicode="F" horiz-adv-x="1001" 
d="M134 1173h792v-139h-636v-362h551v-139h-551v-533h-156v1173z" />
    <glyph glyph-name="G" unicode="G" horiz-adv-x="1274" 
d="M675 598h496v-434q-113 -93 -234.5 -138.5t-250.5 -45.5q-87 0 -166.5 19t-147.5 55.5t-122.5 90t-90.5 122.5q-72 141 -72 313t72 319q70 150 207 222q67 35 144 53.5t165 18.5q63 0 121 -10.5t108.5 -30.5t91 -49t69.5 -66q58 -73 90 -191l-141 -40q-13 45 -28.5 79.5
t-36.5 61.5t-49 47t-65 35q-69 31 -160 31q-81 0 -144 -19t-110 -51.5t-78.5 -75t-50.5 -88.5q-45 -108 -45 -236q0 -157 54 -261.5t157 -158.5q52 -26 107.5 -38t112.5 -12q100 0 196 39q48 20 84.5 40.5t62.5 41.5v219h-346v138z" />
    <glyph glyph-name="H" unicode="H" horiz-adv-x="1183" 
d="M131 1173h155v-482h610v482h156v-1173h-156v552h-610v-552h-155v1173z" />
    <glyph glyph-name="I" unicode="I" horiz-adv-x="455" 
d="M152 1173h156v-1173h-156v1173z" />
    <glyph glyph-name="J" unicode="J" horiz-adv-x="819" 
d="M186 352q3 -67 16 -112t35 -72t53.5 -38.5t71.5 -11.5q58 0 100.5 27.5t58.5 72.5q17 44 17 148v807h153v-799q0 -74 -8.5 -130t-26.5 -98t-45.5 -72t-66.5 -51q-78 -43 -182 -43q-153 0 -236 88.5t-79 264.5z" />
    <glyph glyph-name="K" unicode="K" horiz-adv-x="1093" 
d="M120 1173h155v-582l582 582h211l-491 -475l513 -698h-205l-418 593l-192 -187v-406h-155v1173z" />
    <glyph glyph-name="L" unicode="L" horiz-adv-x="911" 
d="M120 1173h155v-1035h579v-138h-734v1173z" />
    <glyph glyph-name="M" unicode="M" horiz-adv-x="1365" 
d="M122 1173h233l278 -831q19 -57 33 -101t22 -72l62 188l282 816h208v-1173h-149v982l-341 -982h-139l-339 998v-998h-150v1173z" />
    <glyph glyph-name="N" unicode="N" horiz-adv-x="1183" 
d="M125 1173h158l616 -921v921h150v-1173h-159l-616 922v-922h-149v1173z" />
    <glyph glyph-name="O" unicode="O" horiz-adv-x="1274" 
d="M78 572q0 291 158 457q79 82 179.5 123.5t225.5 41.5q122 2 226 -44t179 -128t116.5 -194t38.5 -243q0 -89 -18.5 -170t-53.5 -149.5t-87 -122.5t-118 -90q-131 -73 -283 -73q-83 0 -158 20.5t-139 59t-114 93.5t-84 124q-33 70 -50.5 143.5t-17.5 151.5zM239 569
q0 -211 113 -335q59 -60 129.5 -90.5t157.5 -30.5q175 0 288 123q113 124 113 349q3 108 -26 196t-82.5 150t-128 96t-161.5 33q-163 0 -285 -113q-118 -112 -118 -378z" />
    <glyph glyph-name="P" unicode="P" horiz-adv-x="1093" 
d="M126 1173h443q58 0 102.5 -2.5t75.5 -8.5q63 -8 113 -35t85.5 -70t55 -99.5t21.5 -123.5q0 -151 -96 -254t-344 -103h-300v-477h-156v1173zM585 614q75 0 128 14.5t86 42t48 67.5t15 91q0 74 -38 126t-98 69q-20 5 -55.5 7.5t-88.5 2.5h-300v-420h303z" />
    <glyph glyph-name="Q" unicode="Q" horiz-adv-x="1274" 
d="M1016 126q54 -38 103.5 -65.5t94.5 -44.5l-46 -108q-63 23 -125 59t-125 86q-134 -73 -289 -73q-120 -2 -223.5 43.5t-179 127t-117.5 193t-39 242.5q0 87 18 167.5t53 149.5t85 124t115 92q66 38 138.5 56.5t153.5 18.5q81 1 155 -19t136.5 -58.5t113 -93.5t86 -123
t53.5 -147.5t16 -166.5q0 -144 -44 -259.5t-133 -200.5zM674 325q67 -19 122.5 -47.5t97.5 -66.5q138 126 138 375q2 106 -27 194t-82 150.5t-127.5 96.5t-162.5 33q-174 0 -289 -119q-113 -119 -113 -355q0 -228 113 -352q113 -121 289 -121q85 0 157 31q-74 48 -154 67z
" />
    <glyph glyph-name="R" unicode="R" horiz-adv-x="1183" 
d="M130 1173h519q156 0 237 -33q84 -32 132 -111q48 -78 48 -175q0 -127 -81 -211.5t-249 -108.5q60 -29 93 -59q69 -62 129 -156l204 -319h-196l-153 244q-53 80 -90 129.5t-66 79t-54 42.5t-53 19q-24 7 -86 7h-181v-521h-153v1173zM618 655q78 -2 132 12t87.5 40.5
t49.5 64t19 82.5q0 41 -15 75.5t-46 60t-78.5 40t-111.5 14.5h-372v-389h335z" />
    <glyph glyph-name="S" unicode="S" horiz-adv-x="1093" 
d="M219 390q11 -89 49 -145.5t118 -90.5q81 -34 181 -34q67 -2 121.5 14t92.5 43t58 63.5t18 77.5q0 55 -31.5 96t-106.5 69q-45 20 -208 58q-163 39 -226 73q-167 90 -167 256q-3 67 27.5 127.5t86.5 104.5t132.5 69t166.5 22q99 0 179.5 -25t137.5 -70.5t89 -110.5
t34 -145l-149 -12q-11 113 -79 170t-205 57q-71 0 -122 -14t-83.5 -38t-48 -56t-15.5 -69q0 -62 44 -103q46 -41 234 -86q190 -42 261 -73q103 -48 151.5 -120t48.5 -167q2 -71 -30 -135.5t-90.5 -113t-139 -76.5t-174.5 -26q-117 -3 -208.5 25t-155.5 80.5t-98.5 127
t-37.5 164.5z" />
    <glyph glyph-name="T" unicode="T" horiz-adv-x="1001" 
d="M424 1034h-386v139h930v-139h-388v-1034h-156v1034z" />
    <glyph glyph-name="U" unicode="U" horiz-adv-x="1183" 
d="M1052 1173v-679q0 -175 -41 -281q-38 -101 -145 -169q-53 -32 -120.5 -48t-152.5 -16q-167 0 -270.5 56.5t-148.5 163.5q-44 106 -44 294v679h153v-676q0 -78 7.5 -134.5t20.5 -92.5q31 -72 99 -111q67 -39 170 -39q171 0 242 77q74 77 74 300v676h156z" />
    <glyph glyph-name="V" unicode="V" horiz-adv-x="1093" 
d="M6 1173h169l305 -852q19 -52 33.5 -99t28.5 -92q14 48 29 95.5t34 95.5l317 852h158l-459 -1173h-159z" />
    <glyph glyph-name="W" unicode="W" horiz-adv-x="1546" 
d="M20 1173h158l179 -768q15 -60 27.5 -120.5t23.5 -120.5q23 95 35.5 148.5t16.5 67.5l223 793h187l168 -593q32 -111 54.5 -214.5t36.5 -201.5q11 56 25.5 119t33.5 136l183 754h158l-323 -1173h-149l-247 893q-17 57 -25.5 91t-10.5 46l-35 -137l-249 -893h-159z" />
    <glyph glyph-name="X" unicode="X" horiz-adv-x="1093" 
d="M460 611l-399 562h185l212 -301q67 -92 94 -145q20 32 43.5 65.5t50.5 69.5l236 311h168l-411 -554l444 -619h-193l-296 418l-50 79q-20 -32 -33.5 -54t-22.5 -33l-294 -410h-188z" />
    <glyph glyph-name="Y" unicode="Y" horiz-adv-x="1093" 
d="M457 497l-452 676h189l230 -354q32 -51 61.5 -100t58.5 -98q26 46 58 97t70 109l227 346h181l-467 -676v-497h-156v497z" />
    <glyph glyph-name="Z" unicode="Z" horiz-adv-x="1001" 
d="M33 144l601 750q32 42 62.5 76t58.5 64h-653v139h839v-139l-659 -813l-71 -83h749v-138h-927v144z" />
    <glyph glyph-name="a" unicode="a" horiz-adv-x="911" 
d="M662 105q-40 -35 -78 -58.5t-76 -38.5t-77.5 -21.5t-81.5 -6.5q-69 0 -123 18t-91 50.5t-56.5 77.5t-19.5 99q0 49 16.5 88.5t45 70.5t66 52t79.5 33q21 5 52.5 10t75.5 11q88 11 151.5 23t104.5 26v38q0 89 -39 125q-56 48 -165 48q-51 0 -87.5 -8.5t-62.5 -27.5
t-43 -50t-28 -76l-142 20q29 131 120.5 195.5t263.5 64.5q84 0 141.5 -13.5t94.5 -38.5t57 -59t28 -75q8 -40 8 -135v-192q0 -199 9 -253q9 -50 37 -102h-151q-11 23 -18 48.5t-11 56.5zM650 426q-39 -16 -98 -29.5t-138 -24.5q-44 -7 -74 -13.5t-50.5 -15t-33.5 -20
t-23 -26.5q-20 -31 -20 -69q0 -59 43 -96.5t127 -37.5t148.5 36.5t95.5 99.5q23 49 23 144v52z" />
    <glyph glyph-name="b" unicode="b" horiz-adv-x="911" 
d="M106 0v1173h144v-419q91 114 233 114q83 1 150 -30.5t114.5 -89t72.5 -137t24 -173.5q0 -218 -108 -338q-110 -120 -259 -120t-236 126v-106h-135zM239 431q0 -76 10 -131.5t31 -89.5q68 -110 186 -110q46 0 88 20.5t73.5 61.5t50 102t18.5 142q0 83 -17.5 144t-48 101
t-71.5 59.5t-87 19.5q-94 0 -164 -81q-69 -83 -69 -238z" />
    <glyph glyph-name="c" unicode="c" horiz-adv-x="819" 
d="M805 294q-12 -74 -42.5 -132t-77 -98.5t-106 -62t-129.5 -21.5q-88 0 -159 29t-121.5 85.5t-78 138.5t-27.5 188q-4 104 24.5 188t81 142t124.5 88.5t156 28.5q140 0 227.5 -69t112.5 -199l-140 -22q-20 85 -70 128.5t-123 43.5q-55 0 -100 -19t-77.5 -59t-50.5 -101
t-18 -145q0 -86 17 -147.5t48.5 -101.5t75 -58.5t97.5 -18.5q85 0 141.5 51t71.5 160z" />
    <glyph glyph-name="d" unicode="d" horiz-adv-x="911" 
d="M658 106q-80 -126 -237 -126q-77 -1 -144.5 32t-117.5 92t-78 140.5t-25 179.5q-3 96 23 178.5t74 142.5t114.5 93t146.5 30q78 0 139 -31.5t96 -84.5v421h144v-1173h-135v106zM205 424q0 -82 18.5 -142.5t50 -101t73.5 -60.5t89 -20q46 0 87.5 19t72 58t48.5 97.5
t18 136.5q0 88 -18 152t-49.5 105.5t-73.5 61.5t-91 20t-90 -19.5t-71 -59.5t-47 -101.5t-17 -145.5z" />
    <glyph glyph-name="e" unicode="e" horiz-adv-x="911" 
d="M839 255q-36 -132 -130.5 -203.5t-242.5 -71.5q-94 0 -169 29.5t-127.5 85.5t-80.5 137.5t-28 185.5q0 107 27 190t82 142q111 118 287 118q169 0 279 -116q108 -116 108 -326v-15.5t-2 -22.5h-634q4 -71 24.5 -124.5t54.5 -90t79.5 -55t99.5 -18.5q79 0 135 40.5
t89 133.5zM691 506q-9 110 -53 161q-35 42 -79 62.5t-101 20.5q-50 0 -92 -17t-74 -49t-52 -77t-24 -101h475z" />
    <glyph glyph-name="f" unicode="f" horiz-adv-x="455" 
d="M142 738h-128v112h128v91q0 84 16 125q20 59 72.5 93t146.5 34q62 0 136 -15l-23 -124q-45 6 -84 6q-33 0 -56 -6.5t-37.5 -21.5t-21 -40.5t-6.5 -64.5v-77h165v-112h-165v-738h-143v738z" />
    <glyph glyph-name="g" unicode="g" horiz-adv-x="911" 
d="M221 -92q11 -65 49 -93q53 -41 146 -41q100 0 155 40t75 112q9 45 9 185q-97 -111 -236 -111q-176 0 -272 126q-48 63 -71 138.5t-23 165.5q-2 91 24 172.5t74 141.5t116.5 93.5t153.5 30.5q151 0 248 -121v103h132v-736q0 -199 -41 -280q-40 -84 -127 -131
q-88 -47 -215 -47q-77 0 -139.5 17t-107 51t-68 85.5t-21.5 120.5zM202 441q0 -84 17.5 -144.5t49 -99.5t73.5 -58t92 -19q49 0 92 18.5t74 57.5t49 98.5t18 141.5q0 78 -18.5 137t-50.5 98t-75 59t-92 20q-47 0 -89 -19.5t-73 -58.5t-49 -97t-18 -134z" />
    <glyph glyph-name="h" unicode="h" horiz-adv-x="911" 
d="M108 1173h144v-421q101 116 254 116q96 0 165 -36.5t99 -102.5q29 -64 29 -190v-539h-144v539q0 108 -46.5 157.5t-131.5 49.5q-32 0 -63 -8.5t-58 -25t-48 -39.5t-33 -52q-11 -29 -17 -66.5t-6 -88.5v-466h-144v1173z" />
    <glyph glyph-name="i" unicode="i" horiz-adv-x="364" 
d="M108 1173h144v-165h-144v165zM108 850h144v-850h-144v850z" />
    <glyph glyph-name="j" unicode="j" horiz-adv-x="364" 
d="M106 1173h144v-167h-144v167zM-47 -206q40 -12 67 -12q42 0 65 29q21 27 21 147v892h144v-896q0 -78 -9.5 -133.5t-30.5 -86.5q-53 -78 -172 -78q-30 0 -58 3.5t-55 10.5z" />
    <glyph glyph-name="k" unicode="k" horiz-adv-x="819" 
d="M108 1173h144v-668l341 345h187l-325 -316l358 -534h-177l-282 434l-102 -96v-338h-144v1173z" />
    <glyph glyph-name="l" unicode="l" horiz-adv-x="364" 
d="M105 1173h144v-1173h-144v1173z" />
    <glyph glyph-name="m" unicode="m" horiz-adv-x="1365" 
d="M108 850h130v-120q39 63 105 100.5t151 37.5q94 0 155 -39t85 -110q51 75 116.5 112t145.5 37q128 0 196 -69t68 -216v-583h-144v536q0 42 -3 72t-10.5 51t-20.5 35.5t-32 26.5q-37 23 -85 23q-45 0 -83 -14.5t-65.5 -45t-43.5 -78t-16 -113.5v-493h-144v552
q0 98 -35 145t-116 47q-47 -3 -87 -18.5t-68.5 -50.5t-43 -92t-11.5 -142v-441h-144v850z" />
    <glyph glyph-name="n" unicode="n" horiz-adv-x="911" 
d="M108 850h130v-121q93 139 270 139q61 -1 110.5 -16t85.5 -42t58 -65t28 -83q3 -20 5.5 -54.5t2.5 -85.5v-522h-144v516q0 44 -3.5 76.5t-12.5 56t-23.5 40t-36.5 29.5q-21 14 -46 20t-54 6q-93 0 -160 -59q-66 -57 -66 -221v-464h-144v850z" />
    <glyph glyph-name="o" unicode="o" horiz-adv-x="911" 
d="M54 424q0 235 131 351q109 93 267 93q176 0 287 -114q111 -116 111 -316q0 -82 -12.5 -146t-37 -112.5t-60.5 -84.5t-83 -62q-95 -53 -205 -53q-177 0 -288 115q-110 114 -110 329zM203 424q0 -81 18.5 -142t52 -101.5t79 -60.5t99.5 -20t100 20t79.5 61t52.5 103t19 146
q0 78 -19.5 138t-53 100.5t-79.5 61t-99 20.5q-54 0 -99.5 -20.5t-79 -61t-52 -101.5t-18.5 -143z" />
    <glyph glyph-name="p" unicode="p" horiz-adv-x="911" 
d="M108 850h131v-111q46 66 104.5 97.5t141.5 31.5q83 3 150 -30.5t114.5 -93.5t72.5 -141t24 -172q0 -65 -12 -124t-35 -110t-57.5 -92t-79.5 -69q-87 -56 -187 -56q-73 0 -130 30.5t-93 78.5v-415h-144v1176zM239 419q0 -81 18 -141t48.5 -99.5t72 -59t88.5 -19.5
q48 0 90 20t73.5 61t50 103.5t18.5 148.5q0 81 -18 141.5t-48.5 100.5t-72 60t-87.5 20q-91 0 -162 -86t-71 -250z" />
    <glyph glyph-name="q" unicode="q" horiz-adv-x="911" 
d="M649 90q-17 -24 -40.5 -44t-52.5 -35t-61.5 -23t-66.5 -8q-151 0 -262 122q-108 120 -108 331q-3 97 23.5 178t75.5 139t115.5 89.5t143.5 28.5q157 0 247 -132v114h130v-1176h-144v416zM205 428q0 -82 18.5 -143.5t50 -102.5t74.5 -61.5t91 -20.5q46 0 87 19.5
t71.5 58.5t48 98t17.5 138q0 170 -70 255q-69 86 -163 86q-47 0 -88 -19.5t-71.5 -60t-48 -102t-17.5 -145.5z" />
    <glyph glyph-name="r" unicode="r" horiz-adv-x="546" 
d="M106 850h130v-129q25 45 47.5 73.5t44.5 45t44.5 22.5t46.5 6q38 0 75 -11t75 -35l-51 -134q-26 17 -52.5 24t-52.5 7q-48 0 -85.5 -27.5t-53.5 -78.5q-11 -38 -17.5 -80.5t-6.5 -88.5v-444h-144v850z" />
    <glyph glyph-name="s" unicode="s" horiz-adv-x="819" 
d="M194 275q11 -85 65.5 -130t153.5 -45q50 0 86.5 11t60.5 29t36 42.5t12 51.5q0 51 -42 77q-28 20 -148 50q-79 19 -134 36.5t-86 32.5q-30 14 -53.5 34t-39.5 46q-17 26 -24 54.5t-7 59.5q0 59 25.5 107t70.5 79q35 24 93 41t123 17q157 -4 240.5 -60.5t97.5 -177.5
l-141 -19q-10 66 -55 102.5t-130 36.5q-50 0 -85 -9t-57 -24t-32.5 -34.5t-10.5 -41.5q0 -29 18 -51q8 -11 22.5 -20.5t32.5 -17.5q12 -4 42.5 -13.5t84.5 -24.5q78 -20 130.5 -35.5t82.5 -29.5q61 -27 95 -77q34 -49 34 -123q0 -56 -24.5 -105t-69.5 -85.5t-108 -57.5
t-140 -21q-166 0 -252.5 68.5t-110.5 205.5z" />
    <glyph glyph-name="t" unicode="t" horiz-adv-x="455" 
d="M444 2q-31 -6 -58.5 -9.5t-51.5 -3.5q-78 0 -120.5 24.5t-61.5 64.5q-8 21 -13 63t-5 108v489h-104v112h104v210l143 87v-297h145v-112h-145v-497q0 -62 8 -80q7 -16 25 -28q16 -10 49 -10q12 0 28 1.5t35 5.5z" />
    <glyph glyph-name="u" unicode="u" horiz-adv-x="911" 
d="M665 125q-100 -145 -270 -145q-60 1 -109 17t-85.5 44t-59 65.5t-28.5 82.5q-8 43 -8 133v528h144v-472q0 -113 9 -152q14 -56 57.5 -88.5t108.5 -32.5q32 0 63 8t58 24t48 39t33 52q23 58 23 167v455h144v-850h-128v125z" />
    <glyph glyph-name="v" unicode="v" horiz-adv-x="819" 
d="M22 850h150l183 -509q15 -42 29 -84t26 -87q9 33 23 73.5t31 87.5l188 519h147l-321 -850h-134z" />
    <glyph glyph-name="w" unicode="w" horiz-adv-x="1183" 
d="M5 850h149l134 -491l51 -182l44 175l135 498h149l126 -493l42 -162l50 164l145 491h140l-266 -850h-149l-136 510l-33 144l-172 -654h-148z" />
    <glyph glyph-name="x" unicode="x" horiz-adv-x="819" 
d="M322 442l-288 408h180l132 -200q18 -28 33 -52t26 -43l65 94l143 201h172l-294 -401l317 -449h-178l-175 264l-45 72l-224 -336h-175z" />
    <glyph glyph-name="y" unicode="y" horiz-adv-x="819" 
d="M85 -192q23 -6 44 -9.5t40 -3.5q48 0 76 16t47 45q8 11 18.5 37.5t25.5 70.5l13 34l-323 852h156l177 -493q35 -94 60 -196q13 51 27.5 98.5t31.5 94.5l182 496h145l-323 -864q-26 -71 -46.5 -118.5t-33.5 -73.5q-40 -73 -89 -105.5t-118 -32.5q-44 0 -93 16z" />
    <glyph glyph-name="z" unicode="z" horiz-adv-x="819" 
d="M33 116l541 622q-95 -6 -164 -6h-346v118h694v-96l-460 -540l-88 -98q96 9 181 9h394v-125h-752v116z" />
    <glyph glyph-name="numbersign" unicode="#" horiz-adv-x="911" 
d="M152 321h-136v120h159l61 289h-220v120h243l71 343h119l-71 -343h252l72 343h119l-69 -343h138v-120h-163l-58 -289h221v-120h-246l-69 -341h-121l68 341h-250l-69 -341h-121zM547 441l61 289h-253l-58 -289h250z" />
    <glyph glyph-name="dollar" unicode="$" horiz-adv-x="911" 
d="M408 -25q-54 7 -97 18.5t-78 30.5t-63.5 46t-53.5 66q-49 75 -57 190l144 26q16 -113 59 -170q31 -38 66.5 -59.5t79.5 -25.5v458q-89 18 -182 69q-69 38 -106 105.5t-37 155.5q0 152 109 249q73 62 216 79v69h85v-69q126 -14 198 -75q95 -78 115 -216l-149 -21
q-14 85 -54 130t-110 60v-416q55 -14 90.5 -24t54.5 -18q97 -44 146.5 -120t49.5 -179q0 -152 -95 -251q-48 -51 -109.5 -76.5t-136.5 -29.5v-146h-85v144zM408 1093q-42 -7 -75 -25t-56.5 -44t-36 -58.5t-12.5 -69.5q0 -74 41 -124t139 -79v400zM493 97q42 5 77.5 24t61 49
t40 69.5t14.5 85.5q0 80 -39 125q-38 48 -154 86v-439z" />
    <glyph glyph-name="percent" unicode="%" horiz-adv-x="1032" 
d="M942 1185l-657 -1190h-177l649 1190h185zM106 1057q0 47 34 81.5t81 34.5q48 0 82.5 -34.5t34.5 -81.5t-34.5 -81t-82.5 -34q-47 0 -81 34t-34 81zM641 118q0 48 33.5 82t80.5 34q48 0 82.5 -34t34.5 -82t-34.5 -81.5t-82.5 -33.5q-47 0 -80.5 33.5t-33.5 81.5z" />
    <glyph glyph-name="ampersand" unicode="&#x26;" horiz-adv-x="1093" 
d="M778 138q-140 -158 -336 -158q-179 0 -286 122q-86 99 -86 220q0 219 279 352q-39 46 -64.5 81.5t-40.5 65.5t-20.5 56.5t-5.5 52.5q0 107 82 184q84 79 210 79q118 0 195 -74q77 -75 77 -177q0 -167 -222 -285l210 -269q18 36 32 76.5t24 87.5l151 -33
q-20 -76 -46 -138.5t-59 -113.5q82 -106 183 -180l-97 -115q-43 29 -87.5 70.5t-92.5 95.5zM485 750q48 27 77.5 51t43.5 45t21 44t7 49q0 30 -10 54.5t-27.5 42.5t-42 28t-52.5 10q-29 0 -54 -10t-43 -27t-28.5 -40.5t-10.5 -50.5q0 -29 13 -59t42 -63zM424 580
q-58 -35 -96.5 -67.5t-61 -62.5t-31.5 -59t-9 -58q0 -36 13.5 -74t42.5 -76q57 -77 162 -77q32 0 66.5 11t67.5 30.5t61.5 46t48.5 58.5z" />
    <glyph glyph-name="OE" unicode="&#x152;" horiz-adv-x="3414" 
 />
    <glyph glyph-name="colon" unicode=":" horiz-adv-x="666" 
d="M197 154q0 63 43 107t104 44q64 0 108 -44t44 -107q0 -62 -44 -105t-108 -43q-61 0 -104 43t-43 105zM197 874q0 64 43 108t104 44q64 0 108 -44t44 -108q0 -61 -44 -104t-108 -43q-61 0 -104 43t-43 104z" />
    <glyph glyph-name="semicolon" unicode=";" horiz-adv-x="359" 
d="M119 495q0 36 26 62t62 26t62 -26t26 -62t-26 -61.5t-62 -25.5t-62 25.5t-26 61.5zM111 87q0 37 26.5 63.5t63.5 26.5t62.5 -26.5t25.5 -63.5v-125q0 -108 -111 -108h-48v72q74 0 74 52q0 11 -3 20q-90 0 -90 89z" />
    <glyph glyph-name="question" unicode="?" horiz-adv-x="911" 
d="M377 333q0 42 6 78.5t19 66.5q17 48 55 94q30 33 103 100q76 66 98 106q24 40 24 85q0 82 -68 148q-64 63 -160 63q-93 0 -154 -57.5t-81 -178.5l-147 16q20 166 118.5 252.5t261.5 86.5q173 0 274 -94q103 -94 103 -225q0 -39 -8.5 -74.5t-27.5 -69.5q-36 -63 -141 -156
q-35 -31 -58 -54t-34 -38t-18.5 -32t-14.5 -37q-5 -19 -7 -50t-4 -75h-139v45zM369 164h164v-164h-164v164z" />
    <glyph glyph-name="asciicircum" unicode="^" horiz-adv-x="1707" 
 />
    <glyph glyph-name="underscore" unicode="_" horiz-adv-x="1707" 
 />
    <glyph glyph-name="afii57388" unicode="&#x60c;" horiz-adv-x="610" 
d="M500 147q0 -133 -146 -133q-161 0 -161 133q0 207 34 283q52 129 224 129v-129q-113 0 -113 -127q162 0 162 -156z" />
    <glyph glyph-name="cent" unicode="&#xa2;" horiz-adv-x="1707" 
d="M918 -306h-130v1519h130v-1519z" />
    <glyph glyph-name="sterling" unicode="&#xa3;" horiz-adv-x="1707" 
d="M1141 1213h-576v122h576v-122z" />
    <glyph glyph-name="currency" unicode="&#xa4;" horiz-adv-x="1707" 
 />
    <glyph glyph-name="yen" unicode="&#xa5;" horiz-adv-x="1707" 
d="M1268 1486h-829v120h829v-120zM1268 1171h-829v120h829v-120z" />
    <glyph glyph-name="brokenbar" unicode="&#xa6;" horiz-adv-x="1707" 
 />
    <glyph glyph-name="section" unicode="&#xa7;" horiz-adv-x="1707" 
 />
    <glyph glyph-name="afii57403" unicode="&#x61b;" horiz-adv-x="684" 
d="M459 741q0 -133 -146 -133q-161 0 -161 133q0 207 34 283q52 129 224 129v-129q-113 0 -113 -127q162 0 162 -156zM483 180q0 -33 -12 -60.5t-33.5 -49t-49.5 -33.5t-58 -12q-66 0 -110 45t-44 110q0 64 44 111t110 47q30 0 58 -12.5t49.5 -35t33.5 -50t12 -60.5z" />
    <glyph glyph-name="guilsinglright" unicode="&#x203a;" horiz-adv-x="1117" 
d="M966 444l-806 -386v134l626 297l-626 295v134l806 -384v-90z" />
    <glyph glyph-name="oe" unicode="&#x153;" horiz-adv-x="3414" 
d="M54 424q0 235 131 351q109 93 267 93q176 0 287 -114q111 -116 111 -316q0 -82 -12.5 -146t-37 -112.5t-60.5 -84.5t-83 -62q-95 -53 -205 -53q-177 0 -288 115q-110 114 -110 329zM203 424q0 -81 18.5 -142t52 -101.5t79 -60.5t99.5 -20t100 20t79.5 61t52.5 103t19 146
q0 78 -19.5 138t-53 100.5t-79.5 61t-99 20.5q-54 0 -99.5 -20.5t-79 -61t-52 -101.5t-18.5 -143zM2546 255q-36 -132 -130.5 -203.5t-242.5 -71.5q-94 0 -169 29.5t-127.5 85.5t-80.5 137.5t-28 185.5q0 107 27 190t82 142q111 118 287 118q169 0 279 -116
q108 -116 108 -326v-15.5t-2 -22.5h-634q4 -71 24.5 -124.5t54.5 -90t79.5 -55t99.5 -18.5q79 0 135 40.5t89 133.5zM2398 506q-9 110 -53 161q-35 42 -79 62.5t-101 20.5q-50 0 -92 -17t-74 -49t-52 -77t-24 -101h475z" />
    <glyph glyph-name="plusminus" unicode="&#xb1;" horiz-adv-x="1707" 
 />
    <glyph glyph-name="mu1" unicode="&#xb5;" horiz-adv-x="1707" 
 />
    <glyph glyph-name="paragraph" unicode="&#xb6;" horiz-adv-x="1707" 
 />
    <glyph glyph-name="backslash" unicode="\" horiz-adv-x="455" 
d="M0 1193h116l339 -1213h-114z" />
    <glyph glyph-name="acircumflex" unicode="&#xe2;" horiz-adv-x="1707" 
d="M662 105q-40 -35 -78 -58.5t-76 -38.5t-77.5 -21.5t-81.5 -6.5q-69 0 -123 18t-91 50.5t-56.5 77.5t-19.5 99q0 49 16.5 88.5t45 70.5t66 52t79.5 33q21 5 52.5 10t75.5 11q88 11 151.5 23t104.5 26v38q0 89 -39 125q-56 48 -165 48q-51 0 -87.5 -8.5t-62.5 -27.5
t-43 -50t-28 -76l-142 20q29 131 120.5 195.5t263.5 64.5q84 0 141.5 -13.5t94.5 -38.5t57 -59t28 -75q8 -40 8 -135v-192q0 -199 9 -253q9 -50 37 -102h-151q-11 23 -18 48.5t-11 56.5zM650 426q-39 -16 -98 -29.5t-138 -24.5q-44 -7 -74 -13.5t-50.5 -15t-33.5 -20
t-23 -26.5q-20 -31 -20 -69q0 -59 43 -96.5t127 -37.5t148.5 36.5t95.5 99.5q23 49 23 144v52z" />
    <glyph glyph-name="ocircumflex" unicode="&#xf4;" horiz-adv-x="1707" 
d="M54 424q0 235 131 351q109 93 267 93q176 0 287 -114q111 -116 111 -316q0 -82 -12.5 -146t-37 -112.5t-60.5 -84.5t-83 -62q-95 -53 -205 -53q-177 0 -288 115q-110 114 -110 329zM203 424q0 -81 18.5 -142t52 -101.5t79 -60.5t99.5 -20t100 20t79.5 61t52.5 103t19 146
q0 78 -19.5 138t-53 100.5t-79.5 61t-99 20.5q-54 0 -99.5 -20.5t-79 -61t-52 -101.5t-18.5 -143z" />
    <glyph glyph-name="Euro" unicode="&#x20ac;" horiz-adv-x="1707" 
d="M1268 586h-829v120h829v-120zM1268 271h-829v120h829v-120z" />
    <glyph glyph-name="uni06BA.001" unicode="&#x6ba;" horiz-adv-x="1707" 
 />
    <glyph glyph-name="onequarter" unicode="&#xbc;" horiz-adv-x="2944" 
 />
    <glyph glyph-name="onehalf" unicode="&#xbd;" horiz-adv-x="2944" 
 />
    <glyph glyph-name="threequarters" unicode="&#xbe;" horiz-adv-x="2944" 
 />
    <glyph glyph-name="E006" horiz-adv-x="921" 
d="M409 -254q0 31 12 59t33 49t49 33.5t60 12.5q31 0 59 -12.5t49 -33.5t33 -49t12 -59q0 -32 -12 -59.5t-33 -48.5t-49 -33t-59 -12q-32 0 -60 12t-49 33t-33 48.5t-12 59.5z" />
    <glyph glyph-name="uniE065.001" 
 />
    <glyph glyph-name="E0A8" horiz-adv-x="1260" 
 />
    <glyph glyph-name="icircumflex" unicode="&#xee;" horiz-adv-x="1156" 
 />
    <glyph glyph-name="idieresis" unicode="&#xef;" horiz-adv-x="1156" 
 />
    <glyph glyph-name="E008" horiz-adv-x="1334" 
 />
  </font>
</defs>
</svg>
